Welcome Guest ( Log In | Register )

 
Reply to this topicStart new topic
> Dokken - Under Lock And Key (1985), Heavy Metal/Hard Rock (D) (L98158)
post Mar 26 2016, 15:42:29
Post #1

Маньяк
**********
Group: Металариец
Posts: 1,255
Releases: 18
From: Lake-City
On Forums: 13 years 3 months
Thanks: 2334 time(s)
Russian Federation


(IMG:https://metalarea.org/images/audiocovers/2016_Mar/acov_tid264718_thumb.jpg)

*Artist: Dokken
*Album: Under Lock And Key
*Year: 1985
*Genre: Heavy Metal/Hard Rock
*Country: United States (IMG:https://metalarea.org/forum/style_images/flags/United%20States.png)
*Format: mp3@CBR320kbps
*Size: 106MB

Tracklist:
1. Unchain the Night 05:17
2. The Hunter 04:06
3. In My Dreams 04:18
4. Slippin' Away 03:46
5. Lightnin' Strikes Again 03:47
6. It's Not Love 05:01
7. Jaded Heart 04:13
8. Don't Lie to Me 03:38
9. Will the Sun Rise 04:09
10. Til the Livin' End 03:56
******************************
Total playing time: 42:11

Technical info
(IMG:https://metalarea.org/images/spectrogram/2016_Mar/c6ba86bc33fd7694387884d6205ab300.png)
Input File: 02 The Hunter.mp3
Channels : 2
Sample Rate : 44100
Precision : 16-bit
Duration : 00:04:07.82 = 10928994 samples = 18586.7 CDDA sectors
File Size : 9.92M
Bit Rate : 320k
Sample Encoding: MPEG audio (layer I, II or III)
Comments :
Title=The Hunter
Artist=Dokken
Album=Under Lock And Key
Tracknumber=02
Year=1985
Genre=Heavy Metal / Hard Rock



Register


Go to the top of the page
  Insert nick Quick quote
+Quote Post

Reply to this topicStart new topic
2 User(s) are reading this topic (2 Guests and 0 Anonymous Users)
0 Members:

 



- Lo-Fi Version Support form
Copyrights and abuse reports form
Time is now: 3rd October 2022 - 09:44:59