Welcome Guest ( Log In | Register )

> И неформату есть предел.

Рэп/хип-хоп/шансон/поп удаляются. Для них есть свои порталы.

 
Reply to this topicStart new topic
> CI(A)NID - Мизантропия Властей (2016), Crossover/Hardcore Punk
post Mar 29 2016, 06:53:08
Post #1

Правь статус, ####!111
**************
Group: Металариец
Posts: 3,497
Releases: 1809
From: Земля
On Forums: 6 years 7 months
Thanks: 9970 time(s)
Russian Federation


(IMG:https://metalarea.org/images/audiocovers/2016_Mar/acov_tid264852_thumb.jpg)

*Artist: CI(A)NID
*Album: Мизантропия Властей
*Year: 2016
*Genre: Crossover/Hardcore Punk
*Country: Russian Federation (IMG:https://metalarea.org/forum/style_images/flags/Russian%20Federation.png)
*Format: mp3@CBR320kbps
*Size: 44MB

Tracklist:
1. Панк-вирус 2:28
2. Жри демократию 2:43
3. Оставайся терпилой 1:29
4. Имперский ублюдок 3:03
5. Трупы детей 2:45
6. Новая Россия (Pornoavtomats cover) 2:05
7. Без будущего 3:01
8. Чисти говно 1:53
******************************
Total playing time: 19:27

vk.com

Extended info
Состав:
Матёрый - вокал
Толик - гитара
Портвейн - бас
Кирилл - барабаны

В записи вокала так же принимали участие:

Фарик (Criminal State)
Левый (Вскрытие Покажет)
Хлам (Сетка X Полярного)


Technical info
(IMG:https://metalarea.org/images/spectrogram/2016_Mar/d274f5b48c9471341569bddea5151325.png)
Input File: CI(A)NID - 1 Панк-вирус.mp3
Channels : 2
Sample Rate : 44100
Precision : 16-bit
Duration : 00:02:28.39 = 6544087 samples = 11129.4 CDDA sectors
File Size : 5.94M
Bit Rate : 320k
Sample Encoding: MPEG audio (layer I, II or III)
Comments :
Title=панк вирус
Tracknumber=1
Year=2016



Register


Thanks:
Go to the top of the page
  Insert nick Quick quote
+Quote Post

Reply to this topicStart new topic
1 User(s) are reading this topic (1 Guests and 0 Anonymous Users)
0 Members:

 



- Lo-Fi Version Support form
Copyrights and abuse reports form
Time is now: 22nd October 2020 - 04:45:13