Welcome Guest ( Log In | Register )

> И неформату есть предел.

Рэп/хип-хоп/шансон/поп удаляются. Для них есть свои порталы.

 
Reply to this topicStart new topic
> Sardanapalm Death - Διαμόρφωση συνείδησης (2016), Crust/Hardcore Punk
post Mar 29 2016, 10:17:42
Post #1

Правь статус, ####!111
**************
Group: Металариец
Posts: 3,497
Releases: 1809
From: Земля
On Forums: 6 years 6 months
Thanks: 9967 time(s)
Russian Federation


(IMG:https://metalarea.org/images/audiocovers/2016_Mar/acov_tid264861_thumb.jpg)

*Artist: Sardanapalm Death
*Album: Διαμόρφωση συνείδησης
*Year: 2016
*Genre: Crust/Hardcore Punk
*Country: Greece (IMG:https://metalarea.org/forum/style_images/flags/Greece.png)
*Format: mp3@CBR320kbps
*Size: 51MB

Tracklist:
1. Σίδερο και τσιμέντο 02:23
2. Σινιάλο υποκρισίας 02:05
3. Παλαιστίνη 02:34
4. Απάθεια 02:59
5. Πνευματικός μαρασμός 02:20
6. Ψηφιακός ιστός 02:00
7. Γυαλί στάζει η ματιά μας 02:28
8. Τρομοϋστέρηση 02:22
******************************
Total playing time: 19:11



Technical info
(IMG:https://metalarea.org/images/spectrogram/2016_Mar/17743773d51048be2a52dbaa7a310d35.png)
Input File: Sardanapalm Death - ?????????? ?????????? - 01 ?????? ??? ????????.mp3
Channels : 2
Sample Rate : 44100
Precision : 16-bit
Duration : 00:02:23.79 = 6341183 samples = 10784.3 CDDA sectors
File Size : 5.92M
Bit Rate : 329k
Sample Encoding: MPEG audio (layer I, II or III)
Comments :
Title=ОЈОЇОґОµПЃОї ОєО±О№ П„ПѓО№ОјО­ОЅП„Ої
Artist=Sardanapalm Death
Album=О”О№О±ОјПЊПЃП†П‰ПѓО· ПѓП…ОЅОµОЇОґО·ПѓО·П‚
Tracknumber=1
Year=2016



Register


Thanks:
(1) DarkHorde,
Go to the top of the page
  Insert nick Quick quote
+Quote Post

Reply to this topicStart new topic
1 User(s) are reading this topic (1 Guests and 0 Anonymous Users)
0 Members:

 



- Lo-Fi Version Support form
Copyrights and abuse reports form
Time is now: 20th September 2020 - 08:54:45