Welcome Guest ( Log In | Register )

> И неформату есть предел.

Рэп/хип-хоп/шансон/поп удаляются. Для них есть свои порталы.

 
Reply to this topicStart new topic
> Abandon Cause - Abandon Cause [ep] (2016), Hardcore Punk
post Mar 29 2016, 10:29:34
Post #1

Правь статус, ####!111
**************
Group: Металариец
Posts: 3,497
Releases: 1809
From: Земля
On Forums: 6 years 6 months
Thanks: 9967 time(s)
Russian Federation


(IMG:https://metalarea.org/images/audiocovers/2016_Mar/acov_tid264862_thumb.jpg)

*Artist: Abandon Cause
*Album: Abandon Cause [ep]
*Year: 2016
*Genre: Hardcore Punk
*Country: United Kingdom (IMG:https://metalarea.org/forum/style_images/flags/United%20Kingdom.png)
*Format: mp3@CBR320kbps
*Size: 18MB

Tracklist:
1. Reality Check 01:06
2. I Don't Wanna Know 00:44
3. Headcase 00:55
4. Thickbait 01:36
5. Colour Me Oppressed 01:21
6. Identity Crisis 01:07
******************************
Total playing time: 6:49



Technical info
(IMG:https://metalarea.org/images/spectrogram/2016_Mar/eeb41a70cd3cfabaada16c9fc190b4d3.png)
Input File: Abandon Cause - Abandon Cause - 01 Reality Check.mp3
Channels : 2
Sample Rate : 44100
Precision : 16-bit
Duration : 00:01:06.57 = 2935561 samples = 4992.45 CDDA sectors
File Size : 2.78M
Bit Rate : 334k
Sample Encoding: MPEG audio (layer I, II or III)
Comments :
Title=Reality Check
Artist=Abandon Cause
Album=Abandon Cause
Tracknumber=1
Year=2016



Register


Thanks:
(1) DarkHorde,
Go to the top of the page
  Insert nick Quick quote
+Quote Post

Reply to this topicStart new topic
1 User(s) are reading this topic (1 Guests and 0 Anonymous Users)
0 Members:

 



- Lo-Fi Version Support form
Copyrights and abuse reports form
Time is now: 20th September 2020 - 15:09:48