Welcome Guest ( Log In | Register )

> И неформату есть предел.

Рэп/хип-хоп/шансон/поп удаляются. Для них есть свои порталы.

 
Reply to this topicStart new topic
> Narrow Minded - Severe Loss [ep] (2016), Crust/Hardcore Punk
post Mar 29 2016, 10:49:32
Post #1

Правь статус, ####!111
**************
Group: Металариец
Posts: 3,497
Releases: 1809
From: Земля
On Forums: 6 years 6 months
Thanks: 9967 time(s)
Russian Federation


(IMG:https://metalarea.org/images/audiocovers/2016_Mar/acov_tid264863_thumb.jpg)

*Artist: Narrow Minded
*Album: Severe Loss [ep]
*Year: 2016
*Genre: Crust/Hardcore Punk
*Country: United States (IMG:https://metalarea.org/forum/style_images/flags/United%20States.png)
*Format: mp3@CBR320kbps
*Size: 43MB

Tracklist:
1. Prejudice 02:36
2. Beat The Bounds 02:20
3. Severe Loss 03:14
4. Wasted Space 01:31
5. Desolate Life 04:09
6. Struck out 04:42
******************************
Total playing time: 18:32



Technical info
(IMG:https://metalarea.org/images/spectrogram/2016_Mar/1b333ab6e85650f0e2033eb5954fcd47.png)
Input File: Narrow Minded - Severe Loss EP - 01 Prejudice.mp3
Channels : 2
Sample Rate : 44100
Precision : 16-bit
Duration : 00:02:36.59 = 6905707 samples = 11744.4 CDDA sectors
File Size : 6.36M
Bit Rate : 325k
Sample Encoding: MPEG audio (layer I, II or III)
Comments :
Title=Prejudice
Artist=Narrow Minded
Album=Severe Loss EP
Tracknumber=1
Year=2016



Register


Thanks:
(1) DarkHorde,
Go to the top of the page
  Insert nick Quick quote
+Quote Post

Reply to this topicStart new topic
1 User(s) are reading this topic (1 Guests and 0 Anonymous Users)
0 Members:

 



- Lo-Fi Version Support form
Copyrights and abuse reports form
Time is now: 20th September 2020 - 09:32:46