Welcome Guest ( Log In | Register )

> И неформату есть предел.

Рэп/хип-хоп/шансон/поп удаляются. Для них есть свои порталы.

> Piel Y Hüesos - Demo [demo] (2010), D-beat/Raw Punk
post Mar 30 2016, 14:44:36
Post #1

Правь статус, ####!111
**************
Group: Металариец
Posts: 3,497
Releases: 1809
From: Земля
On Forums: 6 years 6 months
Thanks: 9967 time(s)
Russian Federation


(IMG:https://metalarea.org/images/audiocovers/2016_Mar/acov_tid264929_thumb.jpg)

*Artist: Piel Y Hüesos
*Album: Demo [demo]
*Year: 2010
*Genre: D-beat/Raw Punk
*Country: Venezuela (IMG:https://metalarea.org/forum/style_images/flags/Venezuela.png)
*Format: mp3@CBR320kbps
*Size: 59MB

Tracklist:
1. Intro 02:23
2. Nuestra Realidad 02:02
3. Kaos Total 01:37
4. No más 01:39
5. Sucio uniformado 02:03
6. Critica 01:23
7. Piel y Huesos 01:55
8. Destruye y Huye 01:45
9. Miedo 01:30
10. Falsas Esperanzas 03:10
11. El Punk es Contracultura (Estigia cover) 01:50
12. Police Bastard (Doom cover) / AntiTodo (Eskorbuto cover) 03:37
******************************
Total playing time: 24:54



Technical info
(IMG:https://metalarea.org/images/spectrogram/2016_Mar/a5c94f44bc1835a3b574646a061386aa.png)
Input File: Piel y Huesos - Demo 2010 - 01 Intro.mp3
Channels : 2
Sample Rate : 44100
Precision : 16-bit
Duration : 00:02:23.09 = 6310093 samples = 10731.5 CDDA sectors
File Size : 5.85M
Bit Rate : 327k
Sample Encoding: MPEG audio (layer I, II or III)
Comments :
Title=Intro
Artist=Piel y Huesos
Album=Demo 2010
Tracknumber=1
Year=2013



Register


Thanks:
(1) DarkHorde,
Go to the top of the page
  Insert nick Quick quote
+Quote Post
 
Start new topic
Replies (1 - 3)
post Apr 1 2016, 08:50:27
Post #2

De Mysteriis Dom Sathanas
**************
Group: Металариец
Posts: 4,043
Releases: 63
From: Doom
On Forums: 12 years 2 months
Thanks: 3445 time(s)
Russian Federation


Названьице конечно (IMG:style_emoticons/default/fear.gif)
Go to the top of the page
  Insert nick Quick quote
+Quote Post
post Apr 1 2016, 08:52:42
Post #3

Правь статус, ####!111
**************
Group: Металариец
Posts: 2,425
Releases: 217
On Forums: 13 years 9 months
Thanks: 5701 time(s)
Unknown


QUOTE(RUSP73 @ Apr 1 2016, 08:50:27) *
Названьице конечно (IMG:style_emoticons/default/fear.gif)


пиэль и уэсос - кожа и кости (IMG:style_emoticons/default/1488.gif)


Thanks:
(1) DarkHorde,
Go to the top of the page
  Insert nick Quick quote
+Quote Post
post Apr 1 2016, 11:14:44
Post #4

De Mysteriis Dom Sathanas
**************
Group: Металариец
Posts: 4,043
Releases: 63
From: Doom
On Forums: 12 years 2 months
Thanks: 3445 time(s)
Russian Federation


Видимо после таких процедур,совсем отощал бедняга (IMG:style_emoticons/default/25.gif)
Go to the top of the page
  Insert nick Quick quote
+Quote Post

Reply to this topicStart new topic
1 User(s) are reading this topic (1 Guests and 0 Anonymous Users)
0 Members:

 



- Lo-Fi Version Support form
Copyrights and abuse reports form
Time is now: 20th September 2020 - 08:57:58