Welcome Guest ( Log In | Register )

> И неформату есть предел.

Рэп/хип-хоп/шансон/поп удаляются. Для них есть свои порталы.

 
Reply to this topicStart new topic
> Life Debt - Demo [demo] (2016), Hardcore Punk
post Apr 1 2016, 15:07:48
Post #1

Правь статус, ####!111
**************
Group: Металариец
Posts: 3,497
Releases: 1809
From: Земля
On Forums: 6 years 6 months
Thanks: 9967 time(s)
Russian Federation


(IMG:https://metalarea.org/images/audiocovers/2016_Apr/acov_tid265030_thumb.jpg)

*Artist: Life Debt
*Album: Demo [demo]
*Year: 2016
*Genre: Hardcore Punk
*Country: Australia (IMG:https://metalarea.org/forum/style_images/flags/Australia.png)
*Format: mp3@CBR320kbps
*Size: 19MB

Tracklist:
1. Growing Pains 01:23
2. Friendly Fire 01:56
3. Pass Your Judgement 01:56
4. Bite Back 01:39
******************************
Total playing time: 6:54



Technical info
(IMG:https://metalarea.org/images/spectrogram/2016_Apr/b2bc71771e400077803557730faf4c47.png)
Input File: Life Debt - Demo 2016 - 01 Growing Pains.mp3
Channels : 2
Sample Rate : 44100
Precision : 16-bit
Duration : 00:01:23.86 = 3698226 samples = 6289.5 CDDA sectors
File Size : 3.46M
Bit Rate : 330k
Sample Encoding: MPEG audio (layer I, II or III)
Comments :
Title=Growing Pains
Artist=Life Debt
Album=Demo 2016
Tracknumber=1
Year=2016



Register


Thanks:
(1) DarkHorde,
Go to the top of the page
  Insert nick Quick quote
+Quote Post

Reply to this topicStart new topic
1 User(s) are reading this topic (1 Guests and 0 Anonymous Users)
0 Members:

 



- Lo-Fi Version Support form
Copyrights and abuse reports form
Time is now: 20th September 2020 - 07:32:05