Welcome Guest ( Log In | Register )

> И неформату есть предел.

Рэп/хип-хоп/шансон/поп удаляются. Для них есть свои порталы.

 
Reply to this topicStart new topic
> Mental Violence - Mental Violence [ep] (2016), Hardcore Punk
post Apr 2 2016, 12:58:32
Post #1

Правь статус, ####!111
**************
Group: Металариец
Posts: 3,497
Releases: 1810
From: Земля
On Forums: 5 years 10 months
Thanks: 9918 time(s)
Russian Federation


(IMG:https://metalarea.org/images/audiocovers/2016_Apr/acov_tid265088_thumb.jpg)

*Artist: Mental Violence
*Album: Mental Violence [ep]
*Year: 2016
*Genre: Hardcore Punk
*Country: United States (IMG:https://metalarea.org/forum/style_images/flags/United%20States.png)
*Format: mp3@CBR320kbps
*Size: 24MB

Tracklist:
1. Intro 01:31
2. Cease To Exist 01:52
3. MV 02:22
4. Wasted Youth 02:28
5. Corrupt 02:02
******************************
Total playing time: 10:15



Technical info
(IMG:https://metalarea.org/images/spectrogram/2016_Apr/51d450ae3664a000e84d2d44b123b381.png)
Input File: Mental Violence - S-T - 01 Intro.mp3
Channels : 2
Sample Rate : 44100
Precision : 16-bit
Duration : 00:01:31.25 = 4024301 samples = 6844.05 CDDA sectors
File Size : 3.77M
Bit Rate : 330k
Sample Encoding: MPEG audio (layer I, II or III)
Comments :
Title=Intro
Artist=Mental Violence
Album=S/T
Tracknumber=1
Year=2016



Register


Thanks:
Go to the top of the page
  Insert nick Quick quote
+Quote Post

Reply to this topicStart new topic
1 User(s) are reading this topic (1 Guests and 0 Anonymous Users)
0 Members:

 



- Lo-Fi Version Support form
Copyrights and abuse reports form
Time is now: 22nd January 2020 - 00:10:50