Welcome Guest ( Log In | Register )

> Ancst - Moloch (2016), Black Metal/Crust (D6)
post Apr 3 2016, 04:05:39
Post #1

Serial Uploader
Group Icon
Group: V.I.P
Posts: 37,612
Releases: 35784
From: Lithuania
On Forums: 13 years 3 months
Thanks: 433497 time(s)
Lithuania


(IMG:http://metalarea.org/images/audiocovers/2016_Apr/acov_tid265146_thumb.jpg)

*Artist: Ancst
*Album: Moloch
*Year: 2016
*Genre: Black Metal/Crust
*Country: Germany (IMG:http://metalarea.org/forum/style_images/flags/Germany.png)
*Format: mp3@CBR320kbps
*Size: 97MB

Tracklist:
01. Moloch 03:02
02. Behold Thy Servants 03:54
03. The Skies Of Our Infancy 04:26
04. In Decline 03:39
05. Strife 05:31
06. Devouring Glass 03:19
07. Turning Point 03:38
08. Human Hive 03:24
09. No More Words 02:49
10. Lys 04:33
******************************
Total playing time: 38:15




Technical info
(IMG:http://metalarea.org/images/spectrogram/2016_Apr/c83eaa80ab0bafe5225edbd183e16013.png)
Input File: 02. Behold Thy Servants.mp3
Channels : 2
Sample Rate : 44100
Precision : 16-bit
Duration : 00:03:54.87 = 10357547 samples = 17614.9 CDDA sectors
File Size : 10.1M
Bit Rate : 343k
Sample Encoding: MPEG audio (layer I, II or III)
Comments :
Title=Behold Thy Servants
Artist=Ancst
Album=Moloch
Tracknumber=2/10
Year=2016



Register


Go to the top of the page
  Insert nick Quick quote
+Quote Post
 
Start new topic
Replies (1 - 4)
post Apr 3 2016, 07:26:23
Post #2

Шесть Литров
******
Group: Металариец
Posts: 588
Releases: 28
From: Киев
On Forums: 10 years 11 months
Thanks: 3286 time(s)
Ukraine


как раз сейчас слушаю - очень круто, напоминают местами Fall of Efrafa (и это неплохо).

Register


Thanks:
Go to the top of the page
  Insert nick Quick quote
+Quote Post
post Apr 3 2016, 11:54:37
Post #3

Правь статус, ####!111
**************
Group: Металариец
Posts: 9,364
Releases: 0
From: Москва
On Forums: 12 years 1 month
Thanks: 17230 time(s)
Russian Federation


Register
320


Go to the top of the page
  Insert nick Quick quote
+Quote Post
post Apr 3 2016, 18:15:31
Post #4

Четыре Литра
****
Group: Металариец
Posts: 314
Releases: 0
On Forums: 15 years 1 month
Thanks: 189 time(s)
Belarus




Thanks:
(1) artscald,
Go to the top of the page
  Insert nick Quick quote
+Quote Post
post Jun 2 2016, 15:57:26
Post #5

добрый мизантроп
**************
Group: Металариец
Posts: 2,368
Releases: 1
From: Менск
On Forums: 10 years 10 months
Thanks: 1075 time(s)
Madagascar


Metalcore (IMG:style_emoticons/default/crazy.gif) ? такой качественный старой австрийской школы.
Go to the top of the page
  Insert nick Quick quote
+Quote Post

Reply to this topicStart new topic
1 User(s) are reading this topic (1 Guests and 0 Anonymous Users)
0 Members:

 



- Lo-Fi Version Support form
Copyrights and abuse reports form
Time is now: 18th September 2021 - 14:25:56