Welcome Guest ( Log In | Register )

> Aleph Null - Endtime Sisters [ep] (2016), Stoner/Doom Metal (D4)
post Apr 3 2016, 20:51:50
Post #1

Три Литра
***
Group: Завсегдатай
Posts: 219
Releases: 150
On Forums: 9 years 6 months
Thanks: 1705 time(s)
Paraguay


(IMG:http://metalarea.org/images/audiocovers/2016_Apr/acov_tid265196_thumb.jpg)

*Artist: Aleph Null
*Album: Endtime Sisters [ep]
*Year: 2016
*Genre: Stoner/Doom Metal
*Country: Germany (IMG:http://metalarea.org/forum/style_images/flags/Germany.png)
*Format: mp3@CBR320kbps
*Size: 64MB

Tracklist:
1. Isobel 09:26
2. Black Wine 03:59
3. Comrade 05:31
4. Endtime Sisters 07:40
******************************
Total playing time: 26:36



Extended info
Aleph Null:
Philip: Guitars, Vocals.
Carsten: Bass.
Jens: Drums.


Technical info
(IMG:http://metalarea.org/images/spectrogram/2016_Apr/0ea2f3f10125ef4adda4e7f670d3f4bd.png)
Input File: 02 Black Wine.mp3
Channels : 2
Sample Rate : 44100
Precision : 16-bit
Duration : 00:03:59.70 = 10570726 samples = 17977.4 CDDA sectors
File Size : 9.81M
Bit Rate : 327k
Sample Encoding: MPEG audio (layer I, II or III)
Comments :
Title=Black Wine
Artist=Aleph Null
Album=Endtime Sisters
Tracknumber=2
Year=2016
Genre=Psychedelic Doom Metal



Register


Go to the top of the page
  Insert nick Quick quote
+Quote Post
 
Start new topic
Replies (1 - 1)
post Jan 15 2021, 10:30:41
Post #2

Group Icon
Group: S-moderation team
Posts: 21,164
Releases: 1443
From: Zagreb
On Forums: 10 years 3 months
Thanks: 97591 time(s)
Croatia


Register


Thanks:
Go to the top of the page
  Insert nick Quick quote
+Quote Post

Reply to this topicStart new topic
2 User(s) are reading this topic (2 Guests and 0 Anonymous Users)
0 Members:

 



- Lo-Fi Version Support form
Copyrights and abuse reports form
Time is now: 22nd June 2021 - 12:05:23