Welcome Guest ( Log In | Register )

> Ordo Blasphemus - Chaotic Loom [ep] (2010), Black Metal (D4)
post Apr 8 2016, 05:22:49
Post #1

Satan Soldier
**************
Group: Металариец
Posts: 2,240
Releases: 603
From: IN HELL
On Forums: 8 years 6 months
Thanks: 14825 time(s)
France


(IMG:http://metalarea.org/images/audiocovers/2016_Apr/acov_tid265461_thumb.jpg)

*Artist: Ordo Blasphemus
*Album: Chaotic Loom [ep]
*Year: 2010
*Genre: Black Metal
*Country: France (IMG:http://metalarea.org/forum/style_images/flags/France.png)
*Format: mp3@CBR320kbps
*Size: 80MB

Tracklist:
1.Chaotic Loom 04:10
2.Itaquah 05:11
3.Ancient Spell to Sirus 05:45
4.Coursing Finite Firmament 05:25
5.Lowunder 07:09
******************************
Total playing time: 27:40

Preview 1
Preview 2

Extended info
ANTIQ006


Technical info
(IMG:http://metalarea.org/images/spectrogram/2016_Apr/eaee7bf404d8fe0b264872c7800679d6.png)
Input File: 1 Chaotic loom.mp3
Channels : 2
Sample Rate : 44100
Precision : 16-bit
Duration : 00:04:10.91 = 11065043 samples = 18818.1 CDDA sectors
File Size : 10.0M
Bit Rate : 320k
Sample Encoding: MPEG audio (layer I, II or III)
Comments :
Title=Chaotic loom
Artist=Ordo Blasphemus
Album=Chaotic loom
Year=2010
Genre=Other



Register


Go to the top of the page
  Insert nick Quick quote
+Quote Post
 
Start new topic
Replies (1 - 3)
post Apr 9 2016, 02:06:20
Post #2

Маньяк
**********
Group: Металариец
Posts: 1,038
Releases: 0
From: Цимлянск
On Forums: 7 years 2 months
Thanks: 318 time(s)
Russian Federation


Register
- mp3 discography here

This post has been edited by Fess: Apr 9 2016, 10:02:30


Go to the top of the page
  Insert nick Quick quote
+Quote Post
Blake
post Apr 9 2016, 08:15:47
Post #3

Guests team






Register
это не работает здесь. к сожалению.
Go to the top of the page
  Insert nick Quick quote
+Quote Post
post Apr 10 2016, 22:45:39
Post #4

Пять Литров
*****
Group: Металариец
Posts: 454
Releases: 193
On Forums: 13 years 3 months
Thanks: 2389 time(s)
Brazil


QUOTE(Veggr @ Apr 8 2016, 23:06:20) *
- mp3 discography here



Sorry, Uptobox.com is not available in your country

If you contact our support, please provide this information: (IMG:style_emoticons/default/23.gif)
Go to the top of the page
  Insert nick Quick quote
+Quote Post

Reply to this topicStart new topic
1 User(s) are reading this topic (1 Guests and 0 Anonymous Users)
0 Members:

 



- Lo-Fi Version Support form
Copyrights and abuse reports form
Time is now: 24th July 2021 - 06:43:44