Welcome Guest ( Log In | Register )

> HMR - Ад Уже Здесь! (2016), Heavy Metal/Hardcore
post Apr 9 2016, 11:50:46
Post #1

Necromancer
Group Icon
Group: Curation team
Posts: 11,046
Releases: 271
From: Зеленоград
On Forums: 17 years 4 months
Thanks: 8965 time(s)
Russian Federation


(IMG:http://metalarea.org/images/audiocovers/2016_Apr/acov_tid265525_thumb.jpg)

*Artist: HMR
*Album: Ад Уже Здесь!
*Year: 2016
*Genre: Heavy Metal/Hardcore
*Country: Russian Federation (IMG:http://metalarea.org/forum/style_images/flags/Russian%20Federation.png)
*Format: mp3@CBR320kbps
*Size: 74MB

Tracklist:
1. Альфа-дог
2. Сталинград
3. Марш мертвецов
4. Фронт
5. Анаболизм
6. Живой
7. Ад уже здесь!
8. Бездна
******************************
Total playing time: 33:56

Technical info
(IMG:http://metalarea.org/images/spectrogram/2016_Apr/fd547aa28d15a4b4b05628aa715105be.png)
Input File: 02. 2. Сталинград.mp3
Channels : 2
Sample Rate : 44100
Precision : 16-bit
Duration : 00:04:38.18 = 12267782 samples = 20863.6 CDDA sectors
File Size : 11.1M
Bit Rate : 320k
Sample Encoding: MPEG audio (layer I, II or III)
Comments :
Title=2. Сталинград
Artist=HMR
Album=Ад Уже Здесь (MZR CD 750)
Tracknumber=2/8
Year=2016
Genre=Heavy Metal
Discnumber=1/1



Register


Go to the top of the page
  Insert nick Quick quote
+Quote Post
 
Start new topic
Replies (1 - 5)
post Apr 10 2016, 09:53:14
Post #2

Necromancer
Group Icon
Group: Curation team
Posts: 11,046
Releases: 271
From: Зеленоград
On Forums: 17 years 4 months
Thanks: 8965 time(s)
Russian Federation


Я живой, слишком рано на покой! (IMG:style_emoticons/default/THIS_IS_SPARTA_v2_0_by_DoooM.gif)
Классный альбом.


Thanks:
(1) WOLAND,
Go to the top of the page
  Insert nick Quick quote
+Quote Post
post Apr 10 2016, 16:46:09
Post #3
BAN
Banned till
Apr 30 17510, 17:34:42



Простой и приятный хевиметалический металл. Даже мне иногда хочется такого.


Thanks:
(1) Fess,
Go to the top of the page
  Insert nick Quick quote
+Quote Post
post May 3 2016, 05:47:38
Post #4

South Of Heaven /адепт ВУДУ
**************
Group: Металариец
Posts: 13,960
Releases: 9
On Forums: 13 years 10 months
Thanks: 5679 time(s)
Unknown


Всё просто, понятно и доступно.
При этом интересно и с куражом.
Живой пример тому, что и на нашей сцене есть хорошие группы.
Марку держат, всё творчество на приличном уровне.
Считаю одной из лучших современных в жанре русской группой.
Go to the top of the page
  Insert nick Quick quote
+Quote Post
post May 3 2016, 07:40:07
Post #5

Thrash, Beer & Violence
**************
Group: Металариец
Posts: 5,503
Releases: 2771
From: Крестов Брод (Russland)
On Forums: 16 years 4 months
Thanks: 41212 time(s)
Russian Federation


Приятный альбом. Баллада хороша!... (IMG:style_emoticons/default/20.gif)
ps Надо будет сегодня этот медляк покрутить и погорланить на сабантуйчике по поводу своей днюхи... Я Жииииивой!!! (IMG:style_emoticons/default/headcrab.png) (IMG:style_emoticons/default/9.gif) (IMG:style_emoticons/default/crazy.gif)
Go to the top of the page
  Insert nick Quick quote
+Quote Post
post May 3 2016, 07:57:23
Post #6

Dr.
**************
Group: Металариец
Posts: 5,369
Releases: 0
From: Primorye.ru
On Forums: 12 years 11 months
Thanks: 1126 time(s)
Russian Federation


По случаю переслушал пару раз сей альбом и такое ощущение, что сам свалился в середину 80-х. Спасибо команде и отдельно релизеру, интересно было. (IMG:style_emoticons/default/smile1.gif)
Go to the top of the page
  Insert nick Quick quote
+Quote Post

Reply to this topicStart new topic
1 User(s) are reading this topic (1 Guests and 0 Anonymous Users)
0 Members:

 



- Lo-Fi Version Support form
Copyrights and abuse reports form
Time is now: 1st March 2024 - 12:39:45