Welcome Guest ( Log In | Register )

> Deadsmoke - Deadsmoke (2016), Stoner/Sludge/Doom Metal
post Apr 10 2016, 22:29:50
Post #1

Три Литра
***
Group: Завсегдатай
Posts: 219
Releases: 150
On Forums: 9 years 6 months
Thanks: 1705 time(s)
Paraguay


(IMG:http://metalarea.org/images/audiocovers/2016_Apr/acov_tid265611_thumb.jpg)

*Artist: Deadsmoke
*Album: Deadsmoke
*Year: 2016
*Genre: Stoner/Sludge/Doom Metal
*Country: Italy (IMG:http://metalarea.org/forum/style_images/flags/Italy.png)
*Format: mp3@CBR320kbps
*Size: 71MB

Tracklist:
1. Branches of Evil 05:48
2. Eyes of the Blind Man 04:41
3. Liar Behind Me 06:03
4. Tornado 07:30
5. Night of the Vipers 06:54
******************************
Total playing time: 30:56



Extended info
Deadsmoke:
Gianmaria: Bass.
Maurice: Drums.
Matteo: Guitars.


Technical info
(IMG:http://metalarea.org/images/spectrogram/2016_Apr/ed02ea33fba324e4656cfcc486c09ba4.png)
Input File: Branches Of Evil-Sample.mp3
Channels : 2
Sample Rate : 44100
Precision : 16-bit
Duration : 00:01:00.03 = 2647279 samples = 4502.18 CDDA sectors
File Size : 2.40M
Bit Rate : 320k
Sample Encoding: MPEG audio (layer I, II or III)
Comments :
Title=Branches Of Evil
Artist=Deadsmoke
Album=Deadsmoke
Tracknumber=1
Year=2016
Genre=Sludge/Doom Metal



Register


Go to the top of the page
  Insert nick Quick quote
+Quote Post
 
Start new topic
Replies (1 - 1)
post Apr 11 2016, 16:53:53
Post #2

ME[ta]LLOMAN
**************
Group: Металариец
Posts: 5,007
Releases: 3
From: Avdeyevka
On Forums: 15 years 2 months
Thanks: 2056 time(s)
Honduras


жырррнота, например (IMG:style_emoticons/default/9.gif)
Go to the top of the page
  Insert nick Quick quote
+Quote Post

Reply to this topicStart new topic
2 User(s) are reading this topic (2 Guests and 0 Anonymous Users)
0 Members:

 



- Lo-Fi Version Support form
Copyrights and abuse reports form
Time is now: 23rd June 2021 - 21:09:47