Welcome Guest ( Log In | Register )

 
Reply to this topicStart new topic
> Astray - Beyond The Heights Of Lust (2016), Stoner Rock/Metal (D7)
post Apr 10 2016, 23:59:11
Post #1

Три Литра
***
Group: Завсегдатай
Posts: 219
Releases: 150
On Forums: 9 years 7 months
Thanks: 1706 time(s)
Paraguay


(IMG:http://metalarea.org/images/audiocovers/2016_Apr/acov_tid265612_thumb.jpg)

*Artist: Astray
*Album: Beyond The Heights Of Lust
*Year: 2016
*Genre: Stoner Rock/Metal
*Country: Greece (IMG:http://metalarea.org/forum/style_images/flags/Greece.png)
*Format: mp3@CBR320kbps
*Size: 100MB

Tracklist:
1. Teetotum 04:46
2. WiT(HC) 06:10
3. Cartridge 06:48
4. Last Ray 04:34
5. Huh? 04:07
6. Cast My Stone 04:29
7. E.D.A. 06:26
8. Idle Conversation 04:42
9. Magik Stallion 05:03
******************************
Total playing time: 47:05



Extended info
Astray:
George: Vocals.
Kostas: Guitars.
Jellys: Guitars.
Tolis: Bass.
Apostolis: Drums.


Technical info
(IMG:http://metalarea.org/images/spectrogram/2016_Apr/78201c15157baec464abe7654f370813.png)
Input File: 05 Huh.mp3
Channels : 2
Sample Rate : 44100
Precision : 16-bit
Duration : 00:04:07.12 = 10898036 samples = 18534.1 CDDA sectors
File Size : 9.98M
Bit Rate : 323k
Sample Encoding: MPEG audio (layer I, II or III)
Comments :
Title=Huh?
Artist=Astray
Album=Beyond The Heights Of Lust
Tracknumber=5
Year=2016
Genre=Rock



Register


Go to the top of the page
  Insert nick Quick quote
+Quote Post

Reply to this topicStart new topic
2 User(s) are reading this topic (2 Guests and 0 Anonymous Users)
0 Members:

 



- Lo-Fi Version Support form
Copyrights and abuse reports form
Time is now: 24th July 2021 - 13:22:20