Welcome Guest ( Log In | Register )

 
Reply to this topicStart new topic
> Bloodletter - Malignancy [ep] (2014), Thrash Metal/Crossover
post Apr 11 2016, 00:20:14
Post #1

Правь статус, ####!111
**************
Group: Металариец
Posts: 26,644
Releases: 19190
From: Г.Харьков
On Forums: 9 years 2 months
Thanks: 384012 time(s)
Unknown


(IMG:http://metalarea.org/images/audiocovers/2016_Apr/acov_tid265614_thumb.png)

*Artist: Bloodletter
*Album: Malignancy [ep]
*Year: 2014
*Genre: Thrash Metal/Crossover
*Country: United States (IMG:http://metalarea.org/forum/style_images/flags/United%20States.png)
*Format: mp3@CBR320kbps
*Size: 30MB

Tracklist:
1. In The Ruined Halls... 00:58
2. Reputation For Cruelty 01:35
3. Blackest Mass 03:33
4. Skullsplitter 01:59
5. Poisonous Affair 01:05
6. Malignancy 03:43
******************************
Total playing time: 12:53



Technical info
(IMG:http://metalarea.org/images/spectrogram/2016_Apr/f2e2dfb60a80a0d953789b2411de37eb.png)
Input File: Bloodletter - Malignancy - 03 Blackest Mass.mp3
Channels : 2
Sample Rate : 44100
Precision : 16-bit
Duration : 00:03:33.78 = 9427698 samples = 16033.5 CDDA sectors
File Size : 8.62M
Bit Rate : 323k
Sample Encoding: MPEG audio (layer I, II or III)
Comments :
Title=Blackest Mass
Artist=Bloodletter
Album=Malignancy
Tracknumber=3
Year=2014



Register


Go to the top of the page
  Insert nick Quick quote
+Quote Post

Reply to this topicStart new topic
1 User(s) are reading this topic (1 Guests and 0 Anonymous Users)
0 Members:

 



- Lo-Fi Version Support form
Copyrights and abuse reports form
Time is now: 24th July 2021 - 11:13:24