Welcome Guest ( Log In | Register )

 
Reply to this topicStart new topic
> DOwnhill & Hippie Doom Squad - DOwnhill/Hippie Doom Squad [split] (2016), Sludge/Post-Metal | Southern/Groove Metal
post Apr 14 2016, 21:39:55
Post #1

Три Литра
***
Group: Завсегдатай
Posts: 219
Releases: 150
On Forums: 9 years 6 months
Thanks: 1705 time(s)
Paraguay


(IMG:http://metalarea.org/images/audiocovers/2016_Apr/acov_tid265814_thumb.jpg)

*Artist: DOwnhill & Hippie Doom Squad
*Album: DOwnhill/Hippie Doom Squad [split]
*Year: 2016
*Genre: Sludge/Post-Metal | Southern/Groove Metal
*Country: Belarus (IMG:http://metalarea.org/forum/style_images/flags/Belarus.png) | Belarus (IMG:http://metalarea.org/forum/style_images/flags/Belarus.png)
*Format: mp3@CBR320kbps
*Size: 104MB

Tracklist:
dOwnhill:
01. A Rake's Progress 04:40
02. The Harpy's Nest 04:28
03. Nvnces† 03:55
04. One Way Trip 02:10
05. Burial at Sea 05:24
Hippie Doom Squad:
06. Terrorist 02:26
07. God Bless Suffering 03:47
08. I Love Drugs 03:08
09. Depression 04:12
10. W.W.R.Y. (Queen Cover) 01:49
11. Hobo 04:31
12. Conspiracy 04:38
******************************
Total playing time: 45:08

Preview 1
Preview 2

Extended info
dOwnhill:
Ilya: Bass.
Timur: Drums.
Pliha: Guitars.
Kotzubeer: Guitars, Backing Vocals.
Dog: Vocals.

Hippie Doom Squad:
Sergey Rogov: Bass.
Maxim Fedoruk: Drums.
Johnny: Guitars.
Kirill O. Wayne: Vocals.


Technical info
(IMG:http://metalarea.org/images/spectrogram/2016_Apr/417954c29a8614327205b7e1202cd87f.png)
Input File: 04 One Way Trip.mp3
Channels : 2
Sample Rate : 44100
Precision : 16-bit
Duration : 00:02:10.97 = 5775645 samples = 9822.53 CDDA sectors
File Size : 5.34M
Bit Rate : 326k
Sample Encoding: MPEG audio (layer I, II or III)
Comments :
Title=One Way Trip
Artist=dOwnhill
Album=Split
Tracknumber=4
Year=2016
Genre=Sludge/Post-Metal



Register


Thanks:
(2) Rosen, varlam4,
Go to the top of the page
  Insert nick Quick quote
+Quote Post

Reply to this topicStart new topic
2 User(s) are reading this topic (2 Guests and 0 Anonymous Users)
0 Members:

 



- Lo-Fi Version Support form
Copyrights and abuse reports form
Time is now: 22nd June 2021 - 11:30:31