Welcome Guest ( Log In | Register )

> Aiqëhahirit - Blood Of The Serpent [demo] (2015), Raw Black Metal (D4)
post Apr 15 2016, 19:34:22
Post #1

Tied to a Dying Animal
****
Group: Металариец
Posts: 340
Releases: 67
On Forums: 6 years 6 months
Thanks: 1411 time(s)
North Korea


(IMG:http://metalarea.org/images/audiocovers/2016_Apr/acov_tid265857_thumb.jpg)

*Artist: Aiqëhahirit
*Album: Blood Of The Serpent [demo]
*Year: 2015
*Genre: Raw Black Metal
*Country: Bosnia and Herzegovina (IMG:http://metalarea.org/forum/style_images/flags/Bosnia%20and%20Herzegovina.png)
*Format: mp3@CBR320kbps
*Size: 48MB

Tracklist:
1. Blood of the Serpent 10:18
2. Congregation of Abhorrence 11:12
******************************
Total playing time: 21:30

Extended info


Technical info
(IMG:http://metalarea.org/images/spectrogram/2016_Apr/57e344b754b60cdf79fe1859e0e50add.png)
Input File: 01 -Blood of the Serpent.mp3
Channels : 2
Sample Rate : 44100
Precision : 16-bit
Duration : 00:10:18.79 = 27288815 samples = 46409.5 CDDA sectors
File Size : 24.7M
Bit Rate : 320k
Sample Encoding: MPEG audio (layer I, II or III)
Comments :
Title=Blood of The Serpent
Artist=AiqГ«hahirit
Album=Blood of The Serpent
Tracknumber=1
Year=2015
Genre=Raw Black Metal



Register


Go to the top of the page
  Insert nick Quick quote
+Quote Post
 
Start new topic
Replies (1 - 6)
post Apr 15 2016, 23:52:04
Post #2

Восемь Литров
********
Group: Металариец
Posts: 857
Releases: 163
On Forums: 11 years 2 months
Thanks: 2138 time(s)
Albania


KVLT AND RARE AS ALWAYS.THANKS
Go to the top of the page
  Insert nick Quick quote
+Quote Post
post Apr 16 2016, 08:18:35
Post #3

Group: Дух
Posts: 8
Releases: 0
From: Sweden
On Forums: 11 years 7 months
Thanks: 3 time(s)
Unknown


Could anyone add this to a different filehost. Yadi.sk won't work on my phone, and I have no other connection right now..
Go to the top of the page
  Insert nick Quick quote
+Quote Post
post Apr 16 2016, 18:46:00
Post #4

Group: Дух
Posts: 8
Releases: 0
From: Sweden
On Forums: 11 years 7 months
Thanks: 3 time(s)
Unknown


QUOTE(Спектр @ Apr 16 2016, 13:00:25) *
Here you go


Thanks!
Go to the top of the page
  Insert nick Quick quote
+Quote Post
post Apr 16 2016, 19:43:57
Post #5

While Waiting the Worms
**********
Group: Металариец
Posts: 1,417
Releases: 0
On Forums: 7 years 11 months
Thanks: 2162 time(s)
Unknown


и так слышно, что материал отличный.
но менее шумная запись добавила бы команде очков.


Thanks:
Go to the top of the page
  Insert nick Quick quote
+Quote Post
post Feb 26 2017, 13:42:29
Post #6

Три Литра
***
Group: Завсегдатай
Posts: 230
Releases: 0
From: GREAT TARTARIA
On Forums: 10 years 10 months
Thanks: 91 time(s)
Unknown


ЦИТАТА(Sangreal @ Apr 16 2016, 21:43:57) *
и так слышно, что материал отличный.
но менее шумная запись добавила бы команде очков.

в "очко"))
за менее шумными, это айрон бонхэд, сейчас их много....


Thanks:
Go to the top of the page
  Insert nick Quick quote
+Quote Post
post Feb 26 2017, 14:25:39
Post #7

the faceless one
Group Icon
Group: S-moderation team
Posts: 9,493
Releases: 1965
On Forums: 13 years 3 months
Thanks: 119786 time(s)
Russian Federation


Эксгумировал.
Register


Go to the top of the page
  Insert nick Quick quote
+Quote Post

Reply to this topicStart new topic
2 User(s) are reading this topic (2 Guests and 0 Anonymous Users)
0 Members:

 



- Lo-Fi Version Support form
Copyrights and abuse reports form
Time is now: 3rd December 2021 - 05:29:24