Welcome Guest ( Log In | Register )

 
Reply to this topicStart new topic
> Mount Soma - Origins [ep] (2016), Psychedelic Stoner Rock/Metal
post Apr 17 2016, 21:57:34
Post #1

Три Литра
***
Group: Завсегдатай
Posts: 219
Releases: 150
On Forums: 9 years 6 months
Thanks: 1705 time(s)
Paraguay


(IMG:http://metalarea.org/images/audiocovers/2016_Apr/acov_tid265968_thumb.jpg)

*Artist: Mount Soma
*Album: Origins [ep]
*Year: 2016
*Genre: Psychedelic Stoner Rock/Metal
*Country: Ireland (IMG:http://metalarea.org/forum/style_images/flags/Ireland.png)
*Format: mp3@CBR320kbps
*Size: 46MB

Tracklist:
1. Nebula 09:41
2. Origin 02:47
3. Lazarus 06:30
******************************
Total playing time: 18:58



Extended info
Mount Soma:
Brian: Vocals, Guitar.
Keith: Guitar.
Conrad: Bass.
Aaron: Drums.


Technical info
(IMG:http://metalarea.org/images/spectrogram/2016_Apr/c86bbb232c44b01f70b4c8346874bb72.png)
Input File: Nebula-Sample.mp3
Channels : 2
Sample Rate : 44100
Precision : 16-bit
Duration : 00:01:00.03 = 2647411 samples = 4502.4 CDDA sectors
File Size : 2.57M
Bit Rate : 343k
Sample Encoding: MPEG audio (layer I, II or III)
Comments :
Title=Nebula
Artist=Mount Soma
Album=Origins
Tracknumber=1
Year=2016
Genre=Stoner Metal/Rock



Register


Go to the top of the page
  Insert nick Quick quote
+Quote Post

Reply to this topicStart new topic
2 User(s) are reading this topic (2 Guests and 0 Anonymous Users)
0 Members:

 



- Lo-Fi Version Support form
Copyrights and abuse reports form
Time is now: 22nd June 2021 - 12:04:41