Welcome Guest ( Log In | Register )

> IZŌ - IZŌ (2016), Stoner/Doom/Post-Metal
post Apr 17 2016, 23:07:18
Post #1

Три Литра
***
Group: Завсегдатай
Posts: 219
Releases: 150
On Forums: 9 years 6 months
Thanks: 1705 time(s)
Paraguay


(IMG:http://metalarea.org/images/audiocovers/2016_Apr/acov_tid265969_thumb.jpg)

*Artist: IZŌ
*Album: IZŌ
*Year: 2016
*Genre: Stoner/Doom/Post-Metal
*Country: Italy (IMG:http://metalarea.org/forum/style_images/flags/Italy.png)
*Format: mp3@CBR320kbps
*Size: 85MB

Tracklist:
1. Izo (Intro) 01:34
2. We Are What We Are 07:31
3. Hikikomori 08:40
4. Kikusai 08:32
5. EuTONEsia 07:05
6. MudMut (Outro) 03:58
******************************
Total playing time: 37:20



Extended info
IZŌ:
Paolo Barone: Guitar.
Maurizio Calò: Guitar.
Francesco De Pascali: Bass.
Luca Greco: Drums.


Technical info
(IMG:http://metalarea.org/images/spectrogram/2016_Apr/2b71d5f006331d020783be6b0dfe3610.png)
Input File: We Are What We Are-Sample.mp3
Channels : 2
Sample Rate : 44100
Precision : 16-bit
Duration : 00:01:00.03 = 2647411 samples = 4502.4 CDDA sectors
File Size : 2.59M
Bit Rate : 346k
Sample Encoding: MPEG audio (layer I, II or III)
Comments :
Title=We Are What We Are
Artist=IZЕЊ
Album=IZЕЊ
Tracknumber=2
Year=2016
Genre=Metal



Register


Go to the top of the page
  Insert nick Quick quote
+Quote Post
 
Start new topic
Replies (1 - 1)
post Jan 9 2019, 22:34:31
Post #2

Going home. Flying high.
**************
Group: Металариец
Posts: 13,351
Releases: 0
From: The Land of Shadows
On Forums: 14 years 10 months
Thanks: 27042 time(s)
Russian Federation


from web
Register
Go to the top of the page
  Insert nick Quick quote
+Quote Post

Reply to this topicStart new topic
2 User(s) are reading this topic (2 Guests and 0 Anonymous Users)
0 Members:

 



- Lo-Fi Version Support form
Copyrights and abuse reports form
Time is now: 23rd June 2021 - 22:00:10