Welcome Guest ( Log In | Register )

 
Reply to this topicStart new topic
> Watchtower - Radiant Moon [ep] (2015), Stoner/Doom Metal (D)
post Apr 18 2016, 00:58:19
Post #1

Три Литра
***
Group: Завсегдатай
Posts: 219
Releases: 150
On Forums: 9 years 7 months
Thanks: 1706 time(s)
Paraguay


(IMG:http://metalarea.org/images/audiocovers/2016_Apr/acov_tid265971_thumb.jpg)

*Artist: Watchtower
*Album: Radiant Moon [ep]
*Year: 2015
*Genre: Stoner/Doom Metal
*Country: Australia (IMG:http://metalarea.org/forum/style_images/flags/Australia.png)
*Format: mp3@CBR320kbps
*Size: 37MB

Tracklist:
1. Radiant Moon 09:03
2. Living Heads 07:09
******************************
Total playing time: 16:12



Extended info
Watchtower:
Ben Robertson Bass.
Joel McGann Drums.
Robbie Ingram Guitars.
Nico Guijt Vocals.


Technical info
(IMG:http://metalarea.org/images/spectrogram/2016_Apr/05a378352e32265e23642512858b9567.png)
Input File: Radiant Moon-Sample.mp3
Channels : 2
Sample Rate : 44100
Precision : 16-bit
Duration : 00:01:00.03 = 2647279 samples = 4502.18 CDDA sectors
File Size : 2.40M
Bit Rate : 320k
Sample Encoding: MPEG audio (layer I, II or III)
Comments :
Title=Radiant Moon
Artist=Watchtower
Album=Radiant Moon
Tracknumber=1
Year=2015
Genre=Stoner/Doom Metal



Register


Go to the top of the page
  Insert nick Quick quote
+Quote Post

Reply to this topicStart new topic
1 User(s) are reading this topic (1 Guests and 0 Anonymous Users)
0 Members:

 



- Lo-Fi Version Support form
Copyrights and abuse reports form
Time is now: 24th July 2021 - 05:58:57