Welcome Guest ( Log In | Register )

> Bodybag - Predominance Of Insanity [ep] (2015), Death Metal (D5)
post Apr 25 2016, 11:07:50
Post #1

Serial Uploader
Group Icon
Group: V.I.P
Posts: 42,367
Releases: 40437
From: Lithuania
On Forums: 15 years 10 months
Thanks: 516441 time(s)
Lithuania


(IMG:https://metalarea.org/images/audiocovers/2016_Apr/acov_tid266371_thumb.jpg)

*Artist: Bodybag
*Album: Predominance Of Insanity [ep]
*Year: 2015
*Genre: Death Metal
*Country: Spain (IMG:https://metalarea.org/forum/style_images/flags/Spain.png)
*Format: mp3@VBR286kbps
*Size: 44MB

Tracklist:
01. Introduction/ Into The Bodybag 04:34
02. Ecstasy Of Flesh 01:34
03. The Unnamable 02:12
04. Digging My Abyss 02:21
05. Hallucinated 03:10
06. Crushed (Like A Worm) 02:13
07. Swallow The Skin 02:26
08. Predominance Of Insanity 02:50
******************************
Total playing time: 21:20



(IMG:https://metalarea.org/images/youtube.png)

Extended info
Scene CD-rip

(IMG:http://metalarea.org/images/spectrogram/2016_Apr/c24139b3194d4f6ebf67fd5406ca6052.png)
Input File: 03-bodybag-the_unnamable.mp3
Channels : 2
Sample Rate : 44100
Precision : 16-bit
Duration : 00:02:12.75 = 5854099 samples = 9955.95 CDDA sectors
File Size : 4.83M
Bit Rate : 291k
Sample Encoding: MPEG audio (layer I, II or III)
Comments :
Title=The Unnamable
Artist=Bodybag
Album=Predominance of Insanity
Tracknumber=3/8
Year=2015-00-00
Genre=Death Metal


Register


Go to the top of the page
  Insert nick Quick quote
+Quote Post
 
Start new topic
Replies (1 - 2)
post Mar 15 2023, 19:45:05
Post #2

Два Литра
**
Group: Завсегдатай
Posts: 124
Releases: 0
On Forums: 2 years 1 month
Thanks: 2 time(s)
Unknown


Please re-up (IMG:style_emoticons/default/pray.gif)


Thanks:
(1) Ignativs,
Go to the top of the page
  Insert nick Quick quote
+Quote Post
post Mar 15 2023, 21:09:41
Post #3

Правь статус, ####!111
**************
Group: Металариец
Posts: 4,461
Releases: 0
From: UK
On Forums: 7 years 9 months
Thanks: 1175 time(s)
United Kingdom


Register


Thanks:
Go to the top of the page
  Insert nick Quick quote
+Quote Post

Reply to this topicStart new topic
2 User(s) are reading this topic (2 Guests and 0 Anonymous Users)
0 Members:

 



- Lo-Fi Version Support form
Copyrights and abuse reports form
Time is now: 16th April 2024 - 08:53:02