Welcome Guest ( Log In | Register )

 
Reply to this topicStart new topic
> Grasping Veld - Grasping Veld [ep] (2016), Sludge/Post-Metal
post Apr 26 2016, 18:31:16
Post #1

Три Литра
***
Group: Завсегдатай
Posts: 219
Releases: 150
On Forums: 9 years 7 months
Thanks: 1706 time(s)
Paraguay


(IMG:http://metalarea.org/images/audiocovers/2016_Apr/acov_tid266446_thumb.jpg)

*Artist: Grasping Veld
*Album: Grasping Veld [ep]
*Year: 2016
*Genre: Sludge/Post-Metal
*Country: Russian Federation (IMG:http://metalarea.org/forum/style_images/flags/Russian%20Federation.png)
*Format: mp3@CBR320kbps
*Size: 59MB

Tracklist:
1. Obsessive Anxiety 03:31
2. Vultures 05:00
3. Deafening Howl 05:59
4. Rovers' Tombstones 05:54
5. Hoarfroast 04:15
******************************
Total playing time: 24:39



Extended info
Grasping Veld:
Igor Gorkov: Vocals.
Alex Yablokov: Guitar.
Michail Vaneev: Guitar.
Andrey Laptev: Bass.
Evgeny Zalyzin: Drums.


Technical info
(IMG:http://metalarea.org/images/spectrogram/2016_Apr/a268f69076c875922f56af4d9363e9d5.png)
Input File: Obsessive Anxiety-Sample.mp3
Channels : 2
Sample Rate : 44100
Precision : 16-bit
Duration : 00:00:30.04 = 1324764 samples = 2253 CDDA sectors
File Size : 1.20M
Bit Rate : 320k
Sample Encoding: MPEG audio (layer I, II or III)
Comments :
Title=Obsessive Anxiety
Artist=Grasping Veld
Album=Grasping Veld
Tracknumber=1
Year=2016
Genre=Sludge/Post-Metal



Register


Thanks:
Go to the top of the page
  Insert nick Quick quote
+Quote Post

Reply to this topicStart new topic
2 User(s) are reading this topic (2 Guests and 0 Anonymous Users)
0 Members:

 



- Lo-Fi Version Support form
Copyrights and abuse reports form
Time is now: 24th July 2021 - 05:58:08