Welcome Guest ( Log In | Register )

 
Reply to this topicStart new topic
> Intet - Demo [demo] (2016), Sludge/Doom Metal
post Apr 26 2016, 20:09:13
Post #1

Три Литра
***
Group: Завсегдатай
Posts: 219
Releases: 150
On Forums: 9 years 6 months
Thanks: 1705 time(s)
Paraguay


(IMG:http://metalarea.org/images/audiocovers/2016_Apr/acov_tid266451_thumb.jpg)

*Artist: Intet
*Album: Demo [demo]
*Year: 2016
*Genre: Sludge/Doom Metal
*Country: Sweden (IMG:http://metalarea.org/forum/style_images/flags/Sweden.png)
*Format: mp3@CBR320kbps
*Size: 72MB

Tracklist:
1. Intret 04:54
2. Mänsklig Utgång 16:06
3. Extrovert Hat Från Nedan 10:15
******************************
Total playing time: 31:15



Technical info
(IMG:http://metalarea.org/images/spectrogram/2016_Apr/e9e020cb3d43fd0baafa642f858276e2.png)
Input File: Mänsklig Utgång-Sample.mp3
Channels : 2
Sample Rate : 44100
Precision : 16-bit
Duration : 00:00:30.04 = 1324764 samples = 2253 CDDA sectors
File Size : 1.20M
Bit Rate : 320k
Sample Encoding: MPEG audio (layer I, II or III)
Comments :
Title=Mänsklig Utgång
Artist=Intet
Album=Demo
Tracknumber=2
Year=2016
Genre=Sludge/Doom Metal



Register


Thanks:
Go to the top of the page
  Insert nick Quick quote
+Quote Post

Reply to this topicStart new topic
2 User(s) are reading this topic (2 Guests and 0 Anonymous Users)
0 Members:

 



- Lo-Fi Version Support form
Copyrights and abuse reports form
Time is now: 23rd June 2021 - 22:38:04