Welcome Guest ( Log In | Register )

 
Reply to this topicStart new topic
> Mental Despair - Another World [ep] (2014), Death/Thrash Metal
post Apr 26 2016, 22:17:16
Post #1

Правь статус, ####!111
**************
Group: Металариец
Posts: 26,644
Releases: 19190
From: Г.Харьков
On Forums: 9 years 2 months
Thanks: 383986 time(s)
Unknown


(IMG:http://metalarea.org/images/audiocovers/2016_Apr/acov_tid266456_thumb.jpg)

*Artist: Mental Despair
*Album: Another World [ep]
*Year: 2014
*Genre: Death/Thrash Metal
*Country: Norway (IMG:http://metalarea.org/forum/style_images/flags/Norway.png)
*Format: mp3@CBR320kbps
*Size: 48MB

Tracklist:
1. Another World
2. The Reaper
3. Screams In My Head
4. Unveiling Rage
******************************
Total playing time: 21:53

(IMG:http://metalarea.org/images/youtube.png)


Technical info
(IMG:http://metalarea.org/images/spectrogram/2016_Apr/d3aa6a32aec0b323516d991fe2317f6c.png)
Input File: 02 - The Reaper.mp3
Channels : 2
Sample Rate : 44100
Precision : 16-bit
Duration : 00:04:50.51 = 12811447 samples = 21788.2 CDDA sectors
File Size : 11.6M
Bit Rate : 320k
Sample Encoding: MPEG audio (layer I, II or III)
Comments :
Title=The Reaper
Artist=Mental Despair
Album=Another World
Tracknumber=2
Year=2014
Genre=Metal



Register


Go to the top of the page
  Insert nick Quick quote
+Quote Post

Reply to this topicStart new topic
1 User(s) are reading this topic (1 Guests and 0 Anonymous Users)
0 Members:

 



- Lo-Fi Version Support form
Copyrights and abuse reports form
Time is now: 24th July 2021 - 04:58:58