Welcome Guest ( Log In | Register )

> Holy Grove - Holy Grove (2016), Doom Metal/Rock
post May 1 2016, 19:18:36
Post #1

Три Литра
***
Group: Завсегдатай
Posts: 219
Releases: 150
On Forums: 9 years 6 months
Thanks: 1705 time(s)
Paraguay


(IMG:http://metalarea.org/images/audiocovers/2016_May/acov_tid266699_thumb.jpg)

*Artist: Holy Grove
*Album: Holy Grove
*Year: 2016
*Genre: Doom Metal/Rock
*Country: United States (IMG:http://metalarea.org/forum/style_images/flags/United%20States.png)
*Format: mp3@CBR320kbps
*Size: 102MB

Tracklist:
1. Death of Magic 04:23
2. Nix 07:10
3. Holy Grove 06:20
4. Huntress 04:51
5. Caravan 04:38
6. Hanged Man 08:49
7. Safe Return 07:28
******************************
Total playing time: 43:39



Extended info
Holy Grove:
Andrea Vidal: Vocals.
Trent Jacobs: Guitar.
Gregg Emley: Bass.
Adam Jelsing: Drums.


Technical info
(IMG:http://metalarea.org/images/spectrogram/2016_May/1f237469cae5731c8c0c110aae47551c.png)
Input File: Holy Grove-Sample.mp3
Channels : 2
Sample Rate : 44100
Precision : 16-bit
Duration : 00:00:30.04 = 1324764 samples = 2253 CDDA sectors
File Size : 1.20M
Bit Rate : 320k
Sample Encoding: MPEG audio (layer I, II or III)
Comments :
Title=Holy Grove
Artist=Holy Grove
Album=Holy Grove
Tracknumber=3
Year=2016
Genre=Stoner Rock/Metal



Register


Go to the top of the page
  Insert nick Quick quote
+Quote Post
 
Start new topic
Replies (1 - 1)
post May 1 2016, 23:15:14
Post #2

Два Литра
**
Group: Завсегдатай
Posts: 141
Releases: 0
On Forums: 14 years 2 months
Thanks: 128 time(s)
Russian Federation


Go to the top of the page
  Insert nick Quick quote
+Quote Post

Reply to this topicStart new topic
2 User(s) are reading this topic (2 Guests and 0 Anonymous Users)
0 Members:

 



- Lo-Fi Version Support form
Copyrights and abuse reports form
Time is now: 22nd June 2021 - 12:22:11