Welcome Guest ( Log In | Register )

> Heretic Rites - In Satan's Claws [demo] (2016), Heavy/Doom Metal/Rock
post May 1 2016, 19:51:16
Post #1

Три Литра
***
Group: Завсегдатай
Posts: 219
Releases: 150
On Forums: 9 years 8 months
Thanks: 1706 time(s)
Paraguay


(IMG:http://metalarea.org/images/audiocovers/2016_May/acov_tid266702_thumb.jpg)

*Artist: Heretic Rites
*Album: In Satan's Claws [demo]
*Year: 2016
*Genre: Heavy/Doom Metal/Rock
*Country: Serbia (IMG:http://metalarea.org/forum/style_images/flags/Serbia.png)
*Format: mp3@CBR320kbps
*Size: 68MB

Tracklist:
1. Acid Wrath 07:56
2. Boot Knife Sacrifice 06:24
3. Return to the Castle 07:47
4. Holy Place 06:16
******************************
Total playing time: 28:23



Extended info
Heretic Rites:
Daniel: Vocals, Guitars.
Željko: Bass.
Šmit: Drums.


Technical info
(IMG:http://metalarea.org/images/spectrogram/2016_May/980073ad58081a28469ae37005980448.png)
Input File: Acid Wrath-Sample.mp3
Channels : 2
Sample Rate : 44100
Precision : 16-bit
Duration : 00:00:30.04 = 1324764 samples = 2253 CDDA sectors
File Size : 1.20M
Bit Rate : 320k
Sample Encoding: MPEG audio (layer I, II or III)
Comments :
Title=Acid Wrath
Artist=Heretic Rites
Album=In Satan's Claws
Tracknumber=1
Year=2016
Genre=Doom Metal



Register


Go to the top of the page
  Insert nick Quick quote
+Quote Post
 
Start new topic
Replies (1 - 3)
post Mar 12 2017, 15:08:14
Post #2

Маньяк
**********
Group: Металариец
Posts: 1,024
Releases: 0
From: Vinland
On Forums: 8 years 8 months
Thanks: 1230 time(s)
United States


Reupload please!
Go to the top of the page
  Insert nick Quick quote
+Quote Post
post Mar 12 2017, 15:19:37
Post #3

Going home. Flying high.
**************
Group: Металариец
Posts: 13,374
Releases: 0
From: The Land of Shadows
On Forums: 14 years 11 months
Thanks: 27310 time(s)
Russian Federation


from the web
Register


Thanks:
Go to the top of the page
  Insert nick Quick quote
+Quote Post
post Mar 21 2017, 00:37:01
Post #4

Going home. Flying high.
**************
Group: Металариец
Posts: 13,374
Releases: 0
From: The Land of Shadows
On Forums: 14 years 11 months
Thanks: 27310 time(s)
Russian Federation


есть ещё и альбомная версия, получается. с таким трэклистом:

01. Acid Wrath
02. Boot Knife Sacrifice
03. Return to the Castle
04. Holy Place
05. Howl in Terror
06. Man With the Stiletto
Register



Thanks:
(1) Goatrex,
Go to the top of the page
  Insert nick Quick quote
+Quote Post

Reply to this topicStart new topic
1 User(s) are reading this topic (1 Guests and 0 Anonymous Users)
0 Members:

 



- Lo-Fi Version Support form
Copyrights and abuse reports form
Time is now: 5th August 2021 - 19:22:56