Welcome Guest ( Log In | Register )

> Mayfair - My Ghosts Inside (2016), Psychedelic/Progressive Metal (D6)
post May 2 2016, 05:34:19
Post #1

Аннигилятор пивА
Group Icon
Group: V.I.P
Posts: 52,360
Releases: 16550
From: Koenigsberg - TILZIT
On Forums: 15 years 3 weeks
Thanks: 367715 time(s)
Russian Federation


(IMG:https://metalarea.org/images/audiocovers/2016_May/acov_tid266716_thumb.jpg)

*Artist: Mayfair
*Album: My Ghosts Inside
*Year: 2016
*Genre: Psychedelic/Progressive Metal
*Country: Austria (IMG:https://metalarea.org/forum/style_images/flags/Austria.png)
*Format: mp3@CBR320kbps
*Size: 97MB

Tracklist:
01. Loss
02. My Ghosts Inside
03. Desert
04. Blinded by Your Light
05. When Angels and Demons Meet
06. Our Fire Starts Here
07. Ghostrider
08. Boom
09. Andermal
10. Schrei Es Raus
11. Until We Meet Again
******************************
Total playing time: 40:21



Extended info
rEnE - Gitarre
Mario "le Fate" - Gesang
Johannes - Bass
Jolly - Schlagzeug



Technical info
(IMG:https://metalarea.org/images/spectrogram/2016_May/882ff4571faa473512ca178549d67417.png)
Input File: 02. My Ghosts Inside.mp3
Channels : 2
Sample Rate : 44100
Precision : 16-bit
Duration : 00:02:45.66 = 7305650 samples = 12424.6 CDDA sectors
File Size : 6.63M
Bit Rate : 320k
Sample Encoding: MPEG audio (layer I, II or III)
Comments :
Title=My Ghosts Inside
Artist=Mayfair
Album=My Ghosts Inside
Tracknumber=2
Year=2016
Genre=Progressive Metal



Register


Go to the top of the page
  Insert nick Quick quote
+Quote Post
 
Start new topic
Replies (1 - 3)
post May 2 2016, 17:36:38
Post #2

Два Литра
**
Group: Завсегдатай
Posts: 117
Releases: 0
From: DONETSK
On Forums: 10 years 7 months
Thanks: 23 time(s)
Ukraine



Austria
Go to the top of the page
  Insert nick Quick quote
+Quote Post
post Apr 9 2021, 17:15:16
Post #3

Два Литра
**
Group: Завсегдатай
Posts: 167
Releases: 0
From: Russian Federation
On Forums: 14 years 9 months
Thanks: 3 time(s)
Russian Federation


Thank you very much, but unfortunately the link is no longer available (IMG:style_emoticons/default/6.gif)
Can anyone help?
Go to the top of the page
  Insert nick Quick quote
+Quote Post
post Apr 11 2021, 09:20:53
Post #4

Group Icon
Group: S-moderation team
Posts: 21,159
Releases: 1443
From: Zagreb
On Forums: 10 years 3 months
Thanks: 97551 time(s)
Croatia


Register


Thanks:
Go to the top of the page
  Insert nick Quick quote
+Quote Post

Reply to this topicStart new topic
1 User(s) are reading this topic (1 Guests and 0 Anonymous Users)
0 Members:

 



- Lo-Fi Version Support form
Copyrights and abuse reports form
Time is now: 22nd June 2021 - 02:40:20