Welcome Guest ( Log In | Register )

> Sons Of Huns - While Sleeping Stay Awake (2015), Stoner Metal/Rock
post May 2 2016, 20:55:50
Post #1

Три Литра
***
Group: Завсегдатай
Posts: 219
Releases: 150
On Forums: 9 years 6 months
Thanks: 1705 time(s)
Paraguay


(IMG:http://metalarea.org/images/audiocovers/2016_May/acov_tid266777_thumb.jpg)

*Artist: Sons Of Huns
*Album: While Sleeping Stay Awake
*Year: 2015
*Genre: Stoner Metal/Rock
*Country: United States (IMG:http://metalarea.org/forum/style_images/flags/United%20States.png)
*Format: mp3@CBR320kbps
*Size: 85MB

Tracklist:
1. Osiris Slain 05:00
2. Ad Astra 03:51
3. An Evil Unseen 03:41
4. Eye In The Sky 02:50
5. Philospher’s Stone 04:03
6. Alchemist Part I 02:22
7. Alchemist Part II 06:05
8. While Sleeping Stay Awake 04:05
9. The Reaper Is Waiting For You 05:02
******************************
Total playing time: 36:59

Preview 1

Extended info
Sons Of Huns:
Peter Hughes: Guitars, Vocals.
Aaron Powell: Bass.
Ryan Northrop: Drums.


Technical info
(IMG:http://metalarea.org/images/spectrogram/2016_May/48a0bea87eb3442055d54ff1bf37de4c.png)
Input File: 06 Alchemist Part I.mp3
Channels : 2
Sample Rate : 44100
Precision : 16-bit
Duration : 00:02:22.12 = 6267580 samples = 10659.1 CDDA sectors
File Size : 5.76M
Bit Rate : 324k
Sample Encoding: MPEG audio (layer I, II or III)
Comments :
Title=Alchemist Part I
Artist=Sons Of Huns
Album=While Sleeping Stay Awake
Tracknumber=6
Year=2015
Genre=Stoner Rock



Register


Go to the top of the page
  Insert nick Quick quote
+Quote Post
 
Start new topic
Replies (1 - 1)
post Dec 10 2016, 08:27:48
Post #2

Override the Overture
*******
Group: Металариец
Posts: 707
Releases: 0
From: Moscow
On Forums: 13 years 5 months
Thanks: 162 time(s)
Russian Federation


очень недурно
Go to the top of the page
  Insert nick Quick quote
+Quote Post

Reply to this topicStart new topic
2 User(s) are reading this topic (2 Guests and 0 Anonymous Users)
0 Members:

 



- Lo-Fi Version Support form
Copyrights and abuse reports form
Time is now: 23rd June 2021 - 22:51:01