Welcome Guest ( Log In | Register )

 
Reply to this topicStart new topic
> Sons Of Huns - Kiss The Goat [single] (2016), Stoner Metal/Rock
post May 2 2016, 21:09:21
Post #1

Три Литра
***
Group: Завсегдатай
Posts: 219
Releases: 150
On Forums: 9 years 8 months
Thanks: 1706 time(s)
Paraguay


(IMG:http://metalarea.org/images/audiocovers/2016_May/acov_tid266778_thumb.jpg)

*Artist: Sons Of Huns
*Album: Kiss The Goat [single]
*Year: 2016
*Genre: Stoner Metal/Rock
*Country: United States (IMG:http://metalarea.org/forum/style_images/flags/United%20States.png)
*Format: mp3@CBR320kbps
*Size: 23MB

Tracklist:
1. Powerless to the Succubus 05:27
2. Fantasy/Reality 04:44
******************************
Total playing time: 10:11

Preview 1

Extended info
Sons Of Huns:
Peter Hughes: Guitars, Vocals.
Aaron Powell: Bass.
Ryan Northrop: Drums.


Technical info
(IMG:http://metalarea.org/images/spectrogram/2016_May/b8a336f099bc20ae0105ed56fed2ad9d.png)
Input File: Fantasy - Reality-Sample.mp3
Channels : 2
Sample Rate : 44100
Precision : 16-bit
Duration : 00:00:30.04 = 1324764 samples = 2253 CDDA sectors
File Size : 1.20M
Bit Rate : 320k
Sample Encoding: MPEG audio (layer I, II or III)
Comments :
Title=Fantasy/Reality
Artist=Sons Of Huns
Album=Kiss The Goat
Tracknumber=2
Year=2016
Genre=Stoner Rock/Metal



Register


Go to the top of the page
  Insert nick Quick quote
+Quote Post

Reply to this topicStart new topic
2 User(s) are reading this topic (2 Guests and 0 Anonymous Users)
0 Members:

 



- Lo-Fi Version Support form
Copyrights and abuse reports form
Time is now: 28th July 2021 - 15:05:03