Welcome Guest ( Log In | Register )

> Fallen Apollo - Dethroned (2016), Death Metal/Deathcore
post May 9 2016, 14:10:43
Post #1

Serial Uploader
Group Icon
Group: V.I.P
Posts: 37,216
Releases: 35399
From: Lithuania
On Forums: 12 years 1 month
Thanks: 421355 time(s)
Lithuania


(IMG:https://metalarea.org/images/audiocovers/2016_May/acov_tid267137_thumb.jpg)

*Artist: Fallen Apollo
*Album: Dethroned
*Year: 2016
*Genre: Death Metal/Deathcore
*Country: United Kingdom (IMG:https://metalarea.org/forum/style_images/flags/United%20Kingdom.png)
*Format: mp3@CBR320kbps
*Size: 55MB

Tracklist:
01. Decades Decay 02:36
02. Halls Of Stone 03:09
03. Blood & Chalk 03:02
04. Tactical Planetary Obliteration 03:43
05. Contract Killer 03:30
06. Cadaveric Incubator 02:54
07. Chasing Elation 03:17
08. Acid Bath Burial 03:22
******************************
Total playing time: 25:33


(IMG:https://metalarea.org/images/youtube.png)

Technical info
(IMG:https://metalarea.org/images/spectrogram/2016_May/8d5c800e7dc29ec2f6bd6f686b8e108d.png)
Input File: 02. Halls of Stone.mp3
Channels : 2
Sample Rate : 44100
Precision : 16-bit
Duration : 00:03:09.98 = 8378250 samples = 14248.7 CDDA sectors
File Size : 7.81M
Bit Rate : 329k
Sample Encoding: MPEG audio (layer I, II or III)
Comments :
Title=Halls of Stone
Artist=Fallen Apollo
Album=Dethroned
Tracknumber=2
Year=2016
Genre=Deathcore
Discnumber=1



Register


Go to the top of the page
  Insert nick Quick quote
+Quote Post
 
Start new topic
Replies (1 - 2)
post May 9 2016, 15:03:41
Post #2

Три Литра
***
Group: Завсегдатай
Posts: 273
Releases: 0
From: Россия
On Forums: 8 years 4 months
Thanks: 90 time(s)
Russian Federation


Типичные украинские имена и фамилии у чуваков - Robb Clark - Vocals,Ben Gilbey - Guitar,Brandon Townsley - Guitar,Tom Southon - Bass,Joe Bills - Drums


Thanks:
Go to the top of the page
  Insert nick Quick quote
+Quote Post
post May 9 2016, 20:19:31
Post #3

Маньяк
**********
Group: Металариец
Posts: 1,108
Releases: 0
On Forums: 9 years 1 month
Thanks: 520 time(s)
Unknown


QUOTE(Kehl05 @ May 9 2016, 15:03:41) *
Типичные украинские имена и фамилии у чуваков - Robb Clark - Vocals,Ben Gilbey - Guitar,Brandon Townsley - Guitar,Tom Southon - Bass,Joe Bills - Drums


UKrainian

Go to the top of the page
  Insert nick Quick quote
+Quote Post

Reply to this topicStart new topic
2 User(s) are reading this topic (2 Guests and 0 Anonymous Users)
0 Members:

 



- Lo-Fi Version Support form
Copyrights and abuse reports form
Time is now: 9th July 2020 - 18:47:24