Welcome Guest ( Log In | Register )

> Dopethrone & Fister - Dopethrone/Fister [split] (2016), Doom/Sludge/Stoner Metal | Doom/Sludge/Stoner Metal
post May 11 2016, 19:21:52
Post #1

Три Литра
***
Group: Завсегдатай
Posts: 219
Releases: 150
On Forums: 9 years 6 months
Thanks: 1705 time(s)
Paraguay


(IMG:http://metalarea.org/images/audiocovers/2016_May/acov_tid267288_thumb.jpg)

*Artist: Dopethrone & Fister
*Album: Dopethrone/Fister [split]
*Year: 2016
*Genre: Doom/Sludge/Stoner Metal | Doom/Sludge/Stoner Metal
*Country: Canada (IMG:http://metalarea.org/forum/style_images/flags/Canada.png) | United States (IMG:http://metalarea.org/forum/style_images/flags/United%20States.png)
*Format: mp3@CBR320kbps
*Size: 31MB

Tracklist:
1. Dopethrone - Host 05:09
2. Fister - The Failure 07:38
******************************
Total playing time: 12:47




Extended info
Dopethrone:
Vincent Houde: Guitars, Vocals.
Vyk: Bass.
Big Borman: Drums.

Fister:
Kenny Snarzyk: Bass, Vocals.
Marcus Newstead: Guitars, Additional Vocals.
Kirk Gatterer: Drums.


Technical info
(IMG:http://metalarea.org/images/spectrogram/2016_May/f78901441fe07d5d7b7561d34f61cad6.png)
Input File: Host-Sample.mp3
Channels : 2
Sample Rate : 44100
Precision : 16-bit
Duration : 00:00:30.04 = 1324764 samples = 2253 CDDA sectors
File Size : 1.20M
Bit Rate : 320k
Sample Encoding: MPEG audio (layer I, II or III)
Comments :
Title=Host
Artist=Dopethrone
Album=Dopethrone / Fister
Tracknumber=1
Year=2016
Genre=Sludge/Doom Metal



Register


Go to the top of the page
  Insert nick Quick quote
+Quote Post
 
Start new topic
Replies (1 - 4)
post Sep 20 2016, 21:27:12
Post #2

Правь статус, ####!111
**************
Group: Металариец
Posts: 48,884
Releases: 834
On Forums: 12 years 3 weeks
Thanks: 43659 time(s)
Russian Federation


И этот трэк от канадцев выше всяких похвал. (IMG:style_emoticons/default/pray.gif) (IMG:style_emoticons/default/pray.gif) (IMG:style_emoticons/default/pray.gif)
Go to the top of the page
  Insert nick Quick quote
+Quote Post
post Oct 11 2016, 00:46:33
Post #3

Split Backup Copy
**************
Group: Металариец
Posts: 5,364
Releases: 243
From: с. Мизоново, Ишимский Район, Тюменская область
On Forums: 13 years 6 months
Thanks: 3772 time(s)
Russian Federation


Reupload please.
Go to the top of the page
  Insert nick Quick quote
+Quote Post
post Oct 28 2016, 22:09:57
Post #4

Правь статус, ####!111
**************
Group: Металариец
Posts: 9,337
Releases: 0
From: Москва
On Forums: 11 years 10 months
Thanks: 16900 time(s)
Russian Federation


Register
320


Thanks:
(1) Lanceatum,
Go to the top of the page
  Insert nick Quick quote
+Quote Post
post Jun 29 2020, 11:05:54
Post #5

Мегаманьяк
***********
Group: Металариец
Posts: 1,976
Releases: 215
From: Omsk, Siberia
On Forums: 12 years 3 months
Thanks: 4488 time(s)
Russian Federation


newer links (320):
Register
Go to the top of the page
  Insert nick Quick quote
+Quote Post

Reply to this topicStart new topic
2 User(s) are reading this topic (2 Guests and 0 Anonymous Users)
0 Members:

 



- Lo-Fi Version Support form
Copyrights and abuse reports form
Time is now: 23rd June 2021 - 21:47:47