Welcome Guest ( Log In | Register )

> Ethereal Riffian - I AM. Deathless [ep] (2016), Psychedelic Stoner/Doom Metal
post May 11 2016, 22:37:55
Post #1

Три Литра
***
Group: Завсегдатай
Posts: 219
Releases: 150
On Forums: 9 years 6 months
Thanks: 1705 time(s)
Paraguay


(IMG:http://metalarea.org/images/audiocovers/2016_May/acov_tid267298_thumb.jpg)

*Artist: Ethereal Riffian
*Album: I AM. Deathless [ep]
*Year: 2016
*Genre: Psychedelic Stoner/Doom Metal
*Country: Ukraine (IMG:http://metalarea.org/forum/style_images/flags/Ukraine.png)
*Format: mp3@CBR320kbps
*Size: 38MB

Tracklist:
1. Drum of the Deathless 06:19
2. Sword of the Deathless 09:57
******************************
Total playing time: 16:16



Extended info
Ethereal Riffian:
Stonezilla: Guitars, Vocals, Didgeridoo.
Southman: Guitars.
Saf: Bass.
Ship: Drums.


Technical info
(IMG:http://metalarea.org/images/spectrogram/2016_May/ea658886dd976348efbe9aa92eda2725.png)
Input File: Drum Of The Deathless-Sample.mp3
Channels : 2
Sample Rate : 44100
Precision : 16-bit
Duration : 00:00:30.04 = 1324764 samples = 2253 CDDA sectors
File Size : 1.20M
Bit Rate : 320k
Sample Encoding: MPEG audio (layer I, II or III)
Comments :
Title=Drum Of The Deathless
Artist=Ethereal Riffian
Album=I AM. Deathless
Tracknumber=1
Year=2016
Genre=Psychedelic Stoner Metal/Rock



Register


Go to the top of the page
  Insert nick Quick quote
+Quote Post
 
Start new topic
Replies (1 - 1)
post Feb 10 2017, 09:00:30
Post #2

MélöManiäc
*****
Group: Металариец
Posts: 472
Releases: 37
From: КубанЬ
On Forums: 12 years 5 months
Thanks: 836 time(s)
Russian Federation


Залейте пожалуйста...
Go to the top of the page
  Insert nick Quick quote
+Quote Post

Reply to this topicStart new topic
2 User(s) are reading this topic (2 Guests and 0 Anonymous Users)
0 Members:

 



- Lo-Fi Version Support form
Copyrights and abuse reports form
Time is now: 22nd June 2021 - 11:26:02