Welcome Guest ( Log In | Register )

> И неформату есть предел.

Рэп/хип-хоп/шансон/поп удаляются. Для них есть свои порталы.

> Forndom - Dauðra Dura (2016), Neofolk/Ritual Ambient
post May 13 2016, 17:22:37
Post #1

the faceless one
Group Icon
Group: S-moderation team
Posts: 9,493
Releases: 1965
On Forums: 13 years 3 months
Thanks: 119786 time(s)
Russian Federation


(IMG:http://metalarea.org/images/audiocovers/2016_May/acov_tid267414_thumb.jpg)

*Artist: Forndom
*Album: Dauðra Dura
*Year: 2016
*Genre: Neofolk/Ritual Ambient
*Country: Sweden (IMG:http://metalarea.org/forum/style_images/flags/Sweden.png)
*Format: mp3@CBR320kbps
*Size: 115MB

Tracklist:
1. Nio Nätters Led 05:10
2. Den Grymma Hästen 05:18
3. Resan 03:43
4. När Gudarna Kalla 04:10
5. Svitjod 05:56
6. Jag Vet Ett Tempel Stå 04:12
7. I Hels Sköte 04:40
******************************
Total playing time: 33:09



Extended info


Technical info
(IMG:http://metalarea.org/images/spectrogram/2016_May/012b9bec233ffb75df59fa3134678386.png)
Input File: 02 - Den Grymma Hasten.mp3
Channels : 2
Sample Rate : 44100
Precision : 16-bit
Duration : 00:05:18.10 = 14028166 samples = 23857.4 CDDA sectors
File Size : 12.7M
Bit Rate : 320k
Sample Encoding: MPEG audio (layer I, II or III)
Comments :
Title=Den Grymma Hasten
Artist=Forndom
Album=Daudra Dura
Tracknumber=2
Year=2016



Register


Go to the top of the page
  Insert nick Quick quote
+Quote Post
 
Start new topic
Replies (1 - 3)
post May 15 2016, 08:08:10
Post #2

Три Литра
***
Group: Завсегдатай
Posts: 230
Releases: 0
From: GREAT TARTARIA
On Forums: 10 years 10 months
Thanks: 91 time(s)
Unknown


ОТЛИЧНЫЙ В.И.А.!
БЛГДРНЪ ЗА КАЧЕСТВО!
СЛУШАТЬ ВСЕМ!


Thanks:
Go to the top of the page
  Insert nick Quick quote
+Quote Post
post May 15 2016, 11:12:55
Post #3

Мегаманьяк
***********
Group: Металариец
Posts: 1,727
Releases: 559
On Forums: 11 years 2 weeks
Thanks: 12006 time(s)
Italy


Shamanic Ambient, excellent and highly evocative. A Jewel (IMG:style_emoticons/default/9.gif)


Thanks:
Go to the top of the page
  Insert nick Quick quote
+Quote Post
post May 22 2016, 02:20:05
Post #4

врач педиатр-патологоанатом
*****
Group: Металариец
Posts: 485
Releases: 22
From: Кадыкчан
On Forums: 12 years 4 months
Thanks: 512 time(s)
Russian Federation


Возникают ассоциации с Wardruna, а это хорошо.
Go to the top of the page
  Insert nick Quick quote
+Quote Post

Reply to this topicStart new topic
2 User(s) are reading this topic (2 Guests and 0 Anonymous Users)
0 Members:

 



- Lo-Fi Version Support form
Copyrights and abuse reports form
Time is now: 3rd December 2021 - 06:11:15