Welcome Guest ( Log In | Register )

> Replicant - Worthless Desires [ep] (2016), Death Metal
post May 20 2016, 21:56:30
Post #1

Правь статус, ####!111
**************
Group: Металариец
Posts: 28,180
Releases: 20563
From: Г.Харьков
On Forums: 9 years 6 months
Thanks: 418896 time(s)
Unknown


(IMG:http://metalarea.org/images/audiocovers/2016_May/acov_tid267793_thumb.jpg)

*Artist: Replicant
*Album: Worthless Desires [ep]
*Year: 2016
*Genre: Death Metal
*Country: United States (IMG:http://metalarea.org/forum/style_images/flags/United%20States.png)
*Format: mp3@CBR320kbps
*Size: 34MB

Tracklist:
1. Ripped From Within 03:09
2. Shroud 04:06
3. The Ever Dying Realm 03:04
4. Anti-Instinct: The Withered End 04:35
******************************
Total playing time: 14:54



Technical info
(IMG:http://metalarea.org/images/spectrogram/2016_May/2e5d99e886b529581c828926a3f63e64.png)
Input File: 02 - Shroud.mp3
Channels : 2
Sample Rate : 44100
Precision : 16-bit
Duration : 00:04:05.54 = 10828314 samples = 18415.5 CDDA sectors
File Size : 9.82M
Bit Rate : 320k
Sample Encoding: MPEG audio (layer I, II or III)
Comments :
Title=Shroud
Artist=Replicant
Album=Worthless Desires
Tracknumber=2
Year=2016
Genre=Death Metal



Register


Go to the top of the page
  Insert nick Quick quote
+Quote Post
 
Start new topic
Replies (1 - 2)
post Sep 26 2020, 12:30:24
Post #2

Три Литра
***
Group: Завсегдатай
Posts: 233
Releases: 0
On Forums: 3 years 4 months
Thanks: 16 time(s)
Poland


Please reupload


Thanks:
(1) Occultas,
Go to the top of the page
  Insert nick Quick quote
+Quote Post
post Sep 26 2020, 14:26:15
Post #3

Правь статус, ####!111
**************
Group: Металариец
Posts: 4,333
Releases: 36
On Forums: 4 years 1 month
Thanks: 11441 time(s)
Unknown


Register


Thanks:
Go to the top of the page
  Insert nick Quick quote
+Quote Post

Reply to this topicStart new topic
2 User(s) are reading this topic (2 Guests and 0 Anonymous Users)
0 Members:

 



- Lo-Fi Version Support form
Copyrights and abuse reports form
Time is now: 5th December 2021 - 03:37:00