Welcome Guest ( Log In | Register )

> Corvid Canine - Haunted Forest Melodies (2014), Experimental Grindcore/Cybergrind (D8)
post May 23 2016, 12:05:07
Post #1

Serial Uploader
Group Icon
Group: V.I.P
Posts: 38,066
Releases: 36228
From: Lithuania
On Forums: 13 years 7 months
Thanks: 443257 time(s)
Lithuania


(IMG:https://metalarea.org/images/audiocovers/2016_May/acov_tid267898_thumb.jpg)

*Artist: Corvid Canine
*Album: Haunted Forest Melodies
*Year: 2014
*Genre: Experimental Grindcore/Cybergrind
*Country: United States (IMG:https://metalarea.org/forum/style_images/flags/United%20States.png)
*Format: mp3@CBR320kbps
*Size: 54MB

Tracklist:
01. Into Unknown Acres 00:33
02. No Home 00:43
03. The Gultch 02:24
04. Deteriorating Trails 00:47
05. Blanket Of Moonlight 01:01
06. Light Through The Arms Of Deceased Trees 01:21
07. Incubus 00:52
08. The Storm Found His Name 01:18
09. The Long Journey Home 01:38
10. Heavenly Dream 01:11
11. At The Feet Of Heteronomy 00:48
12. Awake From Sleep, Greeting Waves Above 01:34
13. A Weak Stomach 01:31
14. To Snow And Peak 01:15
15. The Holy Glade 01:06
16. A Bitter Farewell 02:55
17. Haunted Forest Melodies 01:48
******************************
Total playing time: 22:45




Technical info
(IMG:https://metalarea.org/images/spectrogram/2016_May/3153b72477f2ce351e0f7d50f8de3d6f.png)
Input File: 02. No Home.mp3
Channels : 2
Sample Rate : 44100
Precision : 16-bit
Duration : 00:00:43.11 = 1900975 samples = 3232.95 CDDA sectors
File Size : 1.89M
Bit Rate : 350k
Sample Encoding: MPEG audio (layer I, II or III)
Comments :
Title=No Home
Artist=Corvid Canine
Album=Haunted Forest Melodies
Tracknumber=2
Year=2014



Register


Go to the top of the page
  Insert nick Quick quote
+Quote Post
 
Start new topic
Replies (1 - 2)
post May 23 2016, 13:36:22
Post #2

Шесть Литров
******
Group: Металариец
Posts: 639
Releases: 0
From: Нижний Новгород
On Forums: 15 years 5 months
Thanks: 261 time(s)
Russian Federation


Сплошная кибениматика, которая всю жисть называлась электронный хард-кор.
Go to the top of the page
  Insert nick Quick quote
+Quote Post
post Dec 8 2018, 06:40:57
Post #3

...Only Death Is Real...
**************
Group: Металариец
Posts: 3,016
Releases: 19
On Forums: 11 years 6 months
Thanks: 1997 time(s)
Antarctica


ЦИТАТА(Terrorizer @ May 23 2016, 17:36:22) *
Сплошная кибениматика, которая всю жисть называлась электронный хард-кор.

Ни грамма хардкора тут нет. (IMG:style_emoticons/default/23.gif) По скоростям близко к спидкору, но: - 1) трэки слишком короткие для спидкора, 2) кик (бочка) недостаточно перегружена. Тэг " Experimental/Cybergrind" будет наиболее близким. (IMG:style_emoticons/default/look.gif) PS Отдельные трэки идут вообще без бочки. (IMG:style_emoticons/default/crazy.gif)
Register
Go to the top of the page
  Insert nick Quick quote
+Quote Post

Reply to this topicStart new topic
1 User(s) are reading this topic (1 Guests and 0 Anonymous Users)
0 Members:

 



- Lo-Fi Version Support form
Copyrights and abuse reports form
Time is now: 21st January 2022 - 00:16:38