Welcome Guest ( Log In | Register )

> Fuerteser - Salvajes Sin Dios (2014), Heavy Metal
post May 29 2016, 13:23:30
Post #1

Thrash, Beer & Violence
**************
Group: Металариец
Posts: 5,503
Releases: 2772
From: Крестов Брод (Russland)
On Forums: 14 years 1 month
Thanks: 40814 time(s)
Russian Federation


(IMG:http://metalarea.org/images/audiocovers/2016_May/acov_tid268291_thumb.jpg)

*Artist: Fuerteser
*Album: Salvajes Sin Dios
*Year: 2014
*Genre: Heavy Metal
*Country: Argentina (IMG:http://metalarea.org/forum/style_images/flags/Argentina.png)
*Format: mp3@CBR320kbps
*Size: 94MB

Tracklist:
1. Salvajes Sin Dios 04:51
2. Camino Al Abismo 04:06
3. Entre El Caos Y El Dolor 03:54
4. Niños De Cartón 03:37
5. Decide Tu Suerte 04:19
6. Condena Social 04:05
7. Pacto De Sangre 03:28
8. Torturan Mi Mente 03:51
9. Perro Guardian 04:13
10. Traición 04:26
******************************
Total playing time: 40:50



Extended info


Technical info
(IMG:http://metalarea.org/images/spectrogram/2016_May/61b335f7f3c41bcf21c1f7571da11822.png)
Input File: 01 - Salvajes sin Dios.mp3
Channels : 2
Sample Rate : 44100
Precision : 16-bit
Duration : 00:04:51.79 = 12868027 samples = 21884.4 CDDA sectors
File Size : 11.9M
Bit Rate : 327k
Sample Encoding: MPEG audio (layer I, II or III)
Comments :
Title=Salvajes sin Dios
Artist=Fuerteser
Album=Salvajes sin Dios
Tracknumber=01
Year=2014
Genre=Heavy Metal



Register


Go to the top of the page
  Insert nick Quick quote
+Quote Post
 
Start new topic
Replies (1 - 1)
post Oct 19 2016, 16:30:47
Post #2

Group: Подсевший
Posts: 12
Releases: 0
On Forums: 5 years 4 months
Thanks: 1 time(s)
Argentina



Thanks greetings from Argentina!


Thanks:
(1) metadeat,
Go to the top of the page
  Insert nick Quick quote
+Quote Post

Reply to this topicStart new topic
2 User(s) are reading this topic (2 Guests and 0 Anonymous Users)
0 Members:

 



- Lo-Fi Version Support form
Copyrights and abuse reports form
Time is now: 5th December 2021 - 03:47:13