Welcome Guest ( Log In | Register )

Объявления

* gmail.com упорно продолжает считать почту с нас "unsolicited" и отбивает в том числе и письма активации, поэтому просьба использовать альтернативные почтовые ящики.
------------
* gmail.com continues reject all mail from us as "unsolicited" (activation mails too) therefore please use alternate mail servers.
> Sindrome - Resurrection: The Complete Collection [best of/compilation] (2016), Thrash Metal (D4)
post May 29 2016, 17:10:01
Post #1

Thrash, Beer & Violence
**************
Group: Металариец
Posts: 5,503
Releases: 2771
From: Крестов Брод (Russland)
On Forums: 16 years 8 months
Thanks: 41298 time(s)
Russian Federation


(IMG:http://metalarea.org/images/audiocovers/2016_May/acov_tid268306_thumb.jpg)

*Artist: Sindrome
*Album: Resurrection: The Complete Collection [best of/compilation]
*Year: 2016
*Genre: Thrash Metal
*Country: United States (IMG:http://metalarea.org/forum/style_images/flags/United%20States.png)
*Format: mp3@CBR320kbps
*Size: 203MB

Tracklist:
1. Into the Halls of Extermination 04:01
2. Rapture in Blood 03:28
3. Precognition 04:10
4. Cathedral of Ice 04:29
5. Aortic Expulsion 03:18
6. Brought to the End 03:32
7. Descending into Madness 04:33
8. Extra Sensory Warning (E.S.W.) 06:20
9. Astral Projection 04:24
10. Against Infinity 05:37
11. Exit Screaming 03:51
12. Into the Halls of Extermination (live) 09:32
13. Brought to the End (live) 05:42
14. Rapture in Blood (live) 04:01
15. Surround the Prisoner (live) 06:53
16. Cathedral of Ice (live) 05:18
17. Psychic Warfare (live) 08:24
******************************
Total playing time: 1:27:33

Metal-Archives


Extended info
Introduction by Jon ‘Metalion’ Kristiansen (Slayer Mag), detailed interview by Laurent Ramadier with Sindrome's vocalist Troy Dixler, loads of old photos and artwork. The entire material has been remastered from its original sources.

1 CD:
Tracks 1 – 5: “Into The Halls Of Extermination” (demo 1987)
Trackl 6: bonus track from the “Into The Halls Of Extermination” recording session
Tracks 7 – 11: “Vault Of Inner Conscience” (demo 1991)

2CD:
Live at The Iron Rail, Chicago, January 21st 1988



Technical info
(IMG:http://metalarea.org/images/spectrogram/2016_May/64b8aece254536c0d0da4e92cafe06e4.png)
Input File: 01. Into the Halls of Extermination.mp3
Channels : 2
Sample Rate : 44100
Precision : 16-bit
Duration : 00:03:59.10 = 10544222 samples = 17932.4 CDDA sectors
File Size : 9.72M
Bit Rate : 325k
Sample Encoding: MPEG audio (layer I, II or III)
Comments :
Title=Into the Halls of Extermination
Artist=Sindrome
Album=Resurrection - The Complete Collection
Tracknumber=1
Year=2016
Genre=Thrash Metal
Discnumber=1



Register


Go to the top of the page
  Insert nick Quick quote
+Quote Post
 
Start new topic
Replies (1 - 7)
post Jun 9 2016, 18:52:37
Post #2

Шесть Литров
******
Group: Металариец
Posts: 591
Releases: 3
From: Санкт-Петербург
On Forums: 16 years 8 months
Thanks: 197 time(s)
Russian Federation


Progressive Thrash!
Go to the top of the page
  Insert nick Quick quote
+Quote Post
post Jun 9 2016, 19:41:31
Post #3

Два Литра
**
Group: Завсегдатай
Posts: 150
Releases: 0
On Forums: 15 years 3 months
Thanks: 101 time(s)
Russian Federation


Культовые товарищи! Обе демки, из которых состоит это сборник, были просто отличные.

Насчет поджанра, это чистый технотрэш. Тут прога нет.


Thanks:
Go to the top of the page
  Insert nick Quick quote
+Quote Post
post Sep 13 2016, 14:45:46
Post #4

Schuldinerist
**************
Group: Металариец
Posts: 10,961
Releases: 34
From:
On Forums: 17 years 2 months
Thanks: 7431 time(s)
Russian Federation


Конечно же это не прог-трэш и не техно-трэш, а ближе к Slayer / Sodom.
8/10
Go to the top of the page
  Insert nick Quick quote
+Quote Post
post Nov 25 2019, 11:25:54
Post #5

Group: Подсевший
Posts: 32
Releases: 0
On Forums: 5 years 2 weeks
Thanks: 1 time(s)
Bahamas


FLAC?
Go to the top of the page
  Insert nick Quick quote
+Quote Post
post Jul 25 2022, 00:55:40
Post #6

Четыре Литра
****
Group: Металариец
Posts: 319
Releases: 0
On Forums: 15 years 2 weeks
Thanks: 7 time(s)
Russian Federation


Please Reupload¡¡¡
Go to the top of the page
  Insert nick Quick quote
+Quote Post
post Jul 25 2022, 09:41:30
Post #7

Два Литра
**
Group: Завсегдатай
Posts: 143
Releases: 0
On Forums: 6 years 2 months
Thanks: 190 time(s)
Unknown


Register


Go to the top of the page
  Insert nick Quick quote
+Quote Post
post Mar 4 2024, 11:33:49
Post #8

Group: Подсевший
Posts: 11
Releases: 0
On Forums: 5 years 8 months
Thanks: 1 time(s)
Unknown


This is masterpiece !!! Not for all !!
Go to the top of the page
  Insert nick Quick quote
+Quote Post

Reply to this topicStart new topic
2 User(s) are reading this topic (2 Guests and 0 Anonymous Users)
0 Members:

 



- Lo-Fi Version Support form
Copyrights and abuse reports form
Time is now: 14th June 2024 - 09:40:45