Welcome Guest ( Log In | Register )

> Churchburn & Opium Lord - Churchburn/Opium Lord [split] (2016), Blackened Sludge/Doom Metal | Doom/Sludge Metal
post May 30 2016, 01:37:49
Post #1

Три Литра
***
Group: Завсегдатай
Posts: 219
Releases: 150
On Forums: 9 years 6 months
Thanks: 1705 time(s)
Paraguay


(IMG:http://metalarea.org/images/audiocovers/2016_May/acov_tid268313_thumb.jpg)

*Artist: Churchburn & Opium Lord
*Album: Churchburn/Opium Lord [split]
*Year: 2016
*Genre: Blackened Sludge/Doom Metal | Doom/Sludge Metal
*Country: United States (IMG:http://metalarea.org/forum/style_images/flags/United%20States.png) | United Kingdom (IMG:http://metalarea.org/forum/style_images/flags/United%20Kingdom.png)
*Format: mp3@CBR320kbps
*Size: 28MB

Tracklist:
Churchburn:
1. Before The Inferno 06:42
Opium Lord:
2. Control 05:31
******************************
Total playing time: 12:13



Extended info
Churchburn:
Timmy St. Amour: Guitars.
Ray McCaffrey: Drums.
Dave Suzuki: Guitars, Vocals.
Mike: Bass.
Neil: Bass

Opium Lord:
Bruce: Drums.
Simon Blewitt: Guitars.
Luke Fewtrell: Guitars.
Adam Beckley: Guitars.
Nathan Coyle: Vocals.


Technical info
(IMG:http://metalarea.org/images/spectrogram/2016_May/8d1fe1b0062edbdafa91357bc59604b8.png)
Input File: 02 Control.mp3
Channels : 2
Sample Rate : 44100
Precision : 16-bit
Duration : 00:05:31.74 = 14629602 samples = 24880.3 CDDA sectors
File Size : 13.3M
Bit Rate : 322k
Sample Encoding: MPEG audio (layer I, II or III)
Comments :
Title=Control
Artist=Opium Lord
Album=Churchburn / Opium Lord
Tracknumber=2
Year=2016
Genre=Sludge/Doom Metal



Register


Go to the top of the page
  Insert nick Quick quote
+Quote Post
 
Start new topic
Replies (1 - 2)
post Oct 21 2019, 18:12:10
Post #2

Group: Дух
Posts: 6
Releases: 1
On Forums: 2 years 9 months
Thanks: 10 time(s)
Unknown


Dead link :/
Go to the top of the page
  Insert nick Quick quote
+Quote Post
post Oct 21 2019, 20:11:50
Post #3

Group Icon
Group: S-moderation team
Posts: 21,178
Releases: 1443
From: Zagreb
On Forums: 10 years 3 months
Thanks: 97656 time(s)
Croatia


Register


Thanks:
(1) wendigo,
Go to the top of the page
  Insert nick Quick quote
+Quote Post

Reply to this topicStart new topic
2 User(s) are reading this topic (2 Guests and 0 Anonymous Users)
0 Members:

 



- Lo-Fi Version Support form
Copyrights and abuse reports form
Time is now: 23rd June 2021 - 22:07:18