Welcome Guest ( Log In | Register )

 
Reply to this topicStart new topic
> Dead End Irony - Wounds That Never Heal [demo] (2015), Heavy/Power Metal
post Jun 2 2016, 15:55:23
Post #1

Правь статус, ####!111
**************
Group: Металариец
Posts: 27,358
Releases: 19846
From: Г.Харьков
On Forums: 9 years 4 months
Thanks: 399544 time(s)
Unknown


(IMG:http://metalarea.org/images/audiocovers/2016_Jun/acov_tid268541_thumb.jpg)

*Artist: Dead End Irony
*Album: Wounds That Never Heal [demo]
*Year: 2015
*Genre: Heavy/Power Metal
*Country: Finland (IMG:http://metalarea.org/forum/style_images/flags/Finland.png)
*Format: mp3@CBR320kbps
*Size: 50MB

Tracklist:
1. My Revenge 06:19
2. World of Irony 06:09
3. Vault 03:39
4. Wounds That Never Heal 06:09
******************************
Total playing time: 22:16

(IMG:http://metalarea.org/images/youtube.png)


Technical info
(IMG:http://metalarea.org/images/spectrogram/2016_Jun/69ef81056a0de4283554e346d54b48a0.png)
Input File: 02 - World Of Irony.mp3
Channels : 2
Sample Rate : 44100
Precision : 16-bit
Duration : 00:06:09.12 = 16278060 samples = 27683.8 CDDA sectors
File Size : 14.8M
Bit Rate : 320k
Sample Encoding: MPEG audio (layer I, II or III)
Comments :
Title=World Of Irony
Artist=Dead End Irony
Album=Wounds That Never Heal
Tracknumber=2
Year=2015
Genre=Heavy Metal



Register


Go to the top of the page
  Insert nick Quick quote
+Quote Post

Reply to this topicStart new topic
1 User(s) are reading this topic (1 Guests and 0 Anonymous Users)
0 Members:

 



- Lo-Fi Version Support form
Copyrights and abuse reports form
Time is now: 18th September 2021 - 15:49:05