Welcome Guest ( Log In | Register )

 
Reply to this topicStart new topic
> Black Mass - Eleutherios [ep] (2015), Death Metal/Grindcore (D)
post Jun 2 2016, 16:22:24
Post #1

Serial Uploader
Group Icon
Group: V.I.P
Posts: 37,612
Releases: 35784
From: Lithuania
On Forums: 13 years 3 months
Thanks: 433497 time(s)
Lithuania


(IMG:https://metalarea.org/images/audiocovers/2016_Jun/acov_tid268545_thumb.jpg)

*Artist: Black Mass
*Album: Eleutherios [ep]
*Year: 2015
*Genre: Death Metal/Grindcore
*Country: United Kingdom (IMG:https://metalarea.org/forum/style_images/flags/United%20Kingdom.png)
*Format: mp3@CBR320kbps
*Size: 38MB

Tracklist:
01. Nihilum Libertatum Perveniat 04:31
02. Eleutherios 02:26
03. Void Cult Initiate 02:25
04. Beyond The Gate 02:34
05. Rites Of Desquamation (The Howling) 04:23
******************************
Total playing time: 16:19

(IMG:https://metalarea.org/images/myspace.png)



(IMG:https://metalarea.org/images/youtube.png)

Technical info
(IMG:https://metalarea.org/images/spectrogram/2016_Jun/2189f6ba9e71b0477de7fae258c72ce5.png)
Input File: 03. Void Cult Initiate.mp3
Channels : 2
Sample Rate : 44100
Precision : 16-bit
Duration : 00:02:25.83 = 6431059 samples = 10937.2 CDDA sectors
File Size : 6.04M
Bit Rate : 332k
Sample Encoding: MPEG audio (layer I, II or III)
Comments :
Title=Void Cult Initiate
Artist=Black Mass
Album=Eleutherios
Tracknumber=3
Year=2015



Register


Go to the top of the page
  Insert nick Quick quote
+Quote Post

Reply to this topicStart new topic
1 User(s) are reading this topic (1 Guests and 0 Anonymous Users)
0 Members:

 



- Lo-Fi Version Support form
Copyrights and abuse reports form
Time is now: 18th September 2021 - 14:27:29