Welcome Guest ( Log In | Register )

Объявления

* gmail.com упорно продолжает считать почту с нас "unsolicited" и отбивает в том числе и письма активации, поэтому просьба использовать альтернативные почтовые ящики.
------------
* gmail.com continues reject all mail from us as "unsolicited" (activation mails too) therefore please use alternate mail servers.
> The Sound That Ends Creation - We Are The Burden [ep] (2016), Experimental/Technical Death Metal/Grindcore
post Jun 5 2016, 13:32:09
Post #1

Аннигилятор пивА
Group Icon
Group: V.I.P
Posts: 52,563
Releases: 16538
From: Koenigsberg - TILZIT
On Forums: 17 years 10 months
Thanks: 371848 time(s)
Russian Federation


(IMG:https://metalarea.org/images/audiocovers/2016_Jun/acov_tid268707_thumb.jpg)

*Artist: The Sound That Ends Creation
*Album: We Are The Burden [ep]
*Year: 2016
*Genre: Experimental/Technical Death Metal/Grindcore
*Country: United States (IMG:https://metalarea.org/forum/style_images/flags/United%20States.png)
*Format: mp3@CBR320kbps
*Size: 56MB

Tracklist:
01. The Complex 02:06
02. Burn the Trees, Burn the Bark 02:18
03. A Cyclical Dawn 02:24
04. The Fires Are Growing 02:08
05. Machinations Of Progress 02:10
06. Interlude 01:13
07. A Hollow Pine Box 02:07
08. Bottom Feeders 01:38
09. The Open Eye 01:59
10. A Portrait Of Inhumanity 03:14
******************************
Total playing time: 21:17



Extended info
Instead of the crystal clear production and over technical boring releases that plague the extreme scene, The Sound That Ends Creation presents the listener with a gritty, raw, and truly evocative slab of extreme music.
The Sound That Ends Creation successfully blends together all of the styles in extreme music. Grindcore, death metal, black metal, mathcore, and even sludge are all proudly on display in the uncompromising assault of music.


Technical info
(IMG:https://metalarea.org/images/spectrogram/2016_Jun/04fc63100536a49d09d6bd9d793c416a.png)
Input File: 04 - The Fires Are Growing.mp3
Channels : 2
Sample Rate : 44100
Precision : 16-bit
Duration : 00:02:08.07 = 5647755 samples = 9605.03 CDDA sectors
File Size : 5.53M
Bit Rate : 345k
Sample Encoding: MPEG audio (layer I, II or III)
Comments :
Title=The Fires Are Growing
Artist=The Sound That Ends Creation
Album=We Are the Burden
Tracknumber=4/10
Year=2016
Genre=Death Metal
Discnumber=1



Register


Go to the top of the page
  Insert nick Quick quote
+Quote Post
 
Start new topic
Replies (1 - 4)
post Jun 6 2016, 00:19:25
Post #2

Don't be negative.
**************
Group: Металариец
Posts: 2,964
Releases: 776
From: Earthmother
On Forums: 13 years 7 months
Thanks: 10554 time(s)
Ukraine


Mathcore/Blackened Death Metal/Grindcore
Go to the top of the page
  Insert nick Quick quote
+Quote Post
post Jul 3 2018, 19:55:01
Post #3

Pulling the trigger I m feeling so free
**************
Group: Металариец
Posts: 2,907
Releases: 78
From: Technical Death из 90-х
On Forums: 13 years 9 months
Thanks: 8896 time(s)
Unknown


Перезалейте, пожалуйста!

Reupload, please!
Go to the top of the page
  Insert nick Quick quote
+Quote Post
post Jul 5 2018, 16:54:16
Post #4

Правь статус, ####!111
Group Icon
Group: S-moderation team
Posts: 22,058
Releases: 1443
On Forums: 13 years 1 month
Thanks: 127277 time(s)
Unknown


Register


Go to the top of the page
  Insert nick Quick quote
+Quote Post
post Sep 9 2023, 04:48:38
Post #5

Правь статус, ####!111
**************
Group: Металариец
Posts: 3,308
Releases: 0
On Forums: 15 years 2 months
Thanks: 1636 time(s)
South Korea


Moldavite's link above is still working. Thanks!

Also, currently downloadable free (FLAC, 320 kbps, etc.) on 'name your price' basis':
Go to the top of the page
  Insert nick Quick quote
+Quote Post

Reply to this topicStart new topic
1 User(s) are reading this topic (1 Guests and 0 Anonymous Users)
0 Members:

 



- Lo-Fi Version Support form
Copyrights and abuse reports form
Time is now: 25th April 2024 - 16:49:35