Welcome Guest ( Log In | Register )

> 6th Awakening - Hamn [ep] (2016), Melodic Death/Black Metal (D6)
post Jun 7 2016, 18:35:25
Post #1

Аннигилятор пивА
Group Icon
Group: V.I.P
Posts: 52,360
Releases: 16547
From: Koenigsberg - TILZIT
On Forums: 15 years 11 months
Thanks: 369369 time(s)
Russian Federation


(IMG:https://metalarea.org/images/audiocovers/2016_Jun/acov_tid268847_thumb.jpg)

*Artist: 6th Awakening
*Album: Hamn [ep]
*Year: 2016
*Genre: Melodic Death/Black Metal
*Country: Sweden (IMG:https://metalarea.org/forum/style_images/flags/Sweden.png)
*Format: mp3@CBR320kbps
*Size: 45MB

Tracklist:
1. Hålot
2. Patient 209
3. Rex
4. The Dying Game
******************************
Total playing time: 18:54



Extended info


Technical info
(IMG:https://metalarea.org/images/spectrogram/2016_Jun/ca5ec0ed468763279946d8a4672b49df.png)
Input File: 02 - Patient 209.mp3
Channels : 2
Sample Rate : 44100
Precision : 16-bit
Duration : 00:03:37.10 = 9573978 samples = 16282.3 CDDA sectors
File Size : 8.75M
Bit Rate : 323k
Sample Encoding: MPEG audio (layer I, II or III)
Comments :
Title=Patient 209
Artist=6th Awakening
Album=Hamn
Tracknumber=2
Year=2016-06-06



Register


Go to the top of the page
  Insert nick Quick quote
+Quote Post
 
Start new topic
Replies (1 - 5)
post Jun 8 2016, 18:22:26
Post #2

Это просто место… где все подошло к концу.
**************
Group: Металариец
Posts: 6,565
Releases: 0
From: Страны Мамонтов
On Forums: 15 years 3 months
Thanks: 2619 time(s)
Antarctica




Thanks:
(1) artscald,
Go to the top of the page
  Insert nick Quick quote
+Quote Post
post Jun 14 2020, 05:21:00
Post #3

Четыре Литра
****
Group: Металариец
Posts: 315
Releases: 0
On Forums: 2 years 10 months
Thanks: 3 time(s)
Argentina


link caido
Go to the top of the page
  Insert nick Quick quote
+Quote Post
post Jun 14 2020, 07:09:28
Post #4

Правь статус, ####!111
**************
Group: Металариец
Posts: 3,770
Releases: 0
From: UK
On Forums: 5 years 10 months
Thanks: 763 time(s)
United Kingdom


Register


Thanks:
(1) Lukittaz,
Go to the top of the page
  Insert nick Quick quote
+Quote Post
post Dec 25 2020, 13:38:32
Post #5

Маньяк
**********
Group: Металариец
Posts: 1,355
Releases: 0
From: д. Гадюкино
On Forums: 8 years 2 days
Thanks: 666 time(s)
Russian Federation


ЦИТАТА(Wail @ Jun 14 2020, 11:09:28) *

как тут качать?
Go to the top of the page
  Insert nick Quick quote
+Quote Post
post Dec 27 2020, 19:47:24
Post #6

Правь статус, ####!111
Group Icon
Group: S-moderation team
Posts: 22,058
Releases: 1443
On Forums: 11 years 2 months
Thanks: 109704 time(s)
Unknown


Register


Thanks:
Go to the top of the page
  Insert nick Quick quote
+Quote Post

Reply to this topicStart new topic
1 User(s) are reading this topic (1 Guests and 0 Anonymous Users)
0 Members:

 



- Lo-Fi Version Support form
Copyrights and abuse reports form
Time is now: 25th May 2022 - 19:30:31