Welcome Guest ( Log In | Register )

 
Reply to this topicStart new topic
> Darkat Yuuyamihn - Recomeço [single] (2016), Depressive Black Metal (D13)
post Jun 22 2016, 13:04:56
Post #1

Serial Uploader
Group Icon
Group: V.I.P
Posts: 37,532
Releases: 35706
From: Lithuania
On Forums: 12 years 5 months
Thanks: 430256 time(s)
Lithuania


(IMG:https://metalarea.org/images/audiocovers/2016_Jun/acov_tid269620_thumb.jpg)

*Artist: Darkat Yuuyamihn
*Album: Recomeço [single]
*Year: 2016
*Genre: Depressive Black Metal
*Country: Brazil (IMG:https://metalarea.org/forum/style_images/flags/Brazil.png)
*Format: mp3@CBR320kbps
*Size: 14MB

Tracklist:
01. Recomeço 05:58
******************************
Total playing time: 5:58




Technical info
(IMG:https://metalarea.org/images/spectrogram/2016_Jun/4a2cac837b05d2f5ef3f6be088fd50e3.png)
Input File: 01. Recome?o.mp3
Channels : 2
Sample Rate : 44100
Precision : 16-bit
Duration : 00:05:58.36 = 15803456 samples = 26876.6 CDDA sectors
File Size : 14.5M
Bit Rate : 323k
Sample Encoding: MPEG audio (layer I, II or III)
Comments :
Title=Recomeço
Artist=Darkat Yuuyamihn
Album=Recomeço
Tracknumber=1
Year=2016



Register


Go to the top of the page
  Insert nick Quick quote
+Quote Post

Reply to this topicStart new topic
1 User(s) are reading this topic (1 Guests and 0 Anonymous Users)
0 Members:

 



- Lo-Fi Version Support form
Copyrights and abuse reports form
Time is now: 29th November 2020 - 17:06:13