Welcome Guest ( Log In | Register )

> Dawn Of Retaliation - Exordium [ep] (2016), Progressive Death Metal
post Jun 22 2016, 14:01:04
Post #1

Serial Uploader
Group Icon
Group: V.I.P
Posts: 36,853
Releases: 35039
From: Lithuania
On Forums: 11 years 7 months
Thanks: 412004 time(s)
Lithuania


(IMG:https://metalarea.org/images/audiocovers/2016_Jun/acov_tid269623_thumb.jpg)

*Artist: Dawn Of Retaliation
*Album: Exordium [ep]
*Year: 2016
*Genre: Progressive Death Metal
*Country: Norway (IMG:https://metalarea.org/forum/style_images/flags/Norway.png)
*Format: mp3@CBR320kbps
*Size: 38MB

Tracklist:
01. Amelioration 04:58
02. The Great Heretic 04:33
03. A Visionary Advancement 02:39
04. Patrilineal Assets 04:23
******************************
Total playing time: 16:33

(IMG:https://metalarea.org/images/myspace.png)


Technical info
(IMG:https://metalarea.org/images/spectrogram/2016_Jun/850af7e0f19956093a94c6442d2e25c3.png)
Input File: 02. The Great Heretic.mp3
Channels : 2
Sample Rate : 44100
Precision : 16-bit
Duration : 00:04:33.06 = 12041814 samples = 20479.3 CDDA sectors
File Size : 11.0M
Bit Rate : 321k
Sample Encoding: MPEG audio (layer I, II or III)
Comments :
Title=The Great Heretic
Artist=Dawn Of Retaliation
Album=Exordium
Tracknumber=2
Year=2016



Register


Go to the top of the page
  Insert nick Quick quote
+Quote Post
 
Start new topic
Replies (1 - 3)
post Dec 17 2016, 21:02:47
Post #2

Два Литра
**
Group: Завсегдатай
Posts: 110
Releases: 0
On Forums: 10 years 10 months
Thanks: 61 time(s)
Russian Federation


Ссылки скончались. А группа интересная.


Thanks:
(1) Metalass,
Go to the top of the page
  Insert nick Quick quote
+Quote Post
post Dec 18 2016, 01:41:31
Post #3

Going home. Flying high.
**************
Group: Металариец
Posts: 12,966
Releases: 0
From: The Land of Shadows
On Forums: 13 years 5 months
Thanks: 22561 time(s)
Russian Federation


from the web, same bitrate
Register


Thanks:
(1) Metalass,
Go to the top of the page
  Insert nick Quick quote
+Quote Post
post May 13 2017, 18:32:31
Post #4

Правь статус, ####!111
**************
Group: Металариец
Posts: 3,730
Releases: 11
From: Москва и МО
On Forums: 13 years 6 months
Thanks: 1002 time(s)
Russian Federation


Все-таки я, как тугой на ухи человек, не понял, где тут прогрессив в этом дэте.
Хорошая ипиха, все добротно, но прога не ощутил. Может на полноформате он имеется в более явном виде.
Go to the top of the page
  Insert nick Quick quote
+Quote Post

Reply to this topicStart new topic
2 User(s) are reading this topic (2 Guests and 0 Anonymous Users)
0 Members:

 



- Lo-Fi Version Support form
Copyrights and abuse reports form
Time is now: 27th January 2020 - 04:05:05