Welcome Guest ( Log In | Register )

Объявления

* gmail.com упорно продолжает считать почту с нас "unsolicited" и отбивает в том числе и письма активации, поэтому просьба использовать альтернативные почтовые ящики.
------------
* gmail.com continues reject all mail from us as "unsolicited" (activation mails too) therefore please use alternate mail servers.
> Gloomy Grim - The Age Of Aquarius (2016), Symphonic Black Metal
post Jun 23 2016, 18:54:06
Post #1

.....
**************
Group: Металариец
Posts: 2,821
Releases: 117
On Forums: 14 years 11 months
Thanks: 4144 time(s)
Unknown


(IMG:http://metalarea.org/images/audiocovers/2016_Jun/acov_tid269691_thumb.jpg)

*Artist: Gloomy Grim
*Album: The Age Of Aquarius
*Year: 2016
*Genre: Symphonic Black Metal
*Country: Finland (IMG:http://metalarea.org/forum/style_images/flags/Finland.png)
*Format: mp3@CBR320kbps
*Size: 86MB

Tracklist:
1. The Rise of the Great Beast 04:54
2. Germination 02:53
3. A Lady in White 03:23
4. Beyond the Hate 04:46
5. One Night I Heard a Scream 05:33
6. The Shameful Kiss 03:05
7. The Mist 05:01
8. Time 04:21
9. Light of Lucifer Shine on Me 06:17
10. Trapped in Eternal Darkness 04:05
******************************
Total playing time: 44:18



Extended info
Эксклюзивно для портала

CD-Rip



Technical info
(IMG:http://metalarea.org/images/spectrogram/2016_Jun/7b9e7ca84296ce9e0739be019cedb819.png)
Input File: 02 Germination.mp3
Channels : 2
Sample Rate : 44100
Precision : 16-bit
Duration : 00:02:53.36 = 7645176 samples = 13002 CDDA sectors
File Size : 6.93M
Bit Rate : 320k
Sample Encoding: MPEG audio (layer I, II or III)
Comments :
Title=Germination
Artist=Gloomy Grim
Album=The Age of Aquarius
Tracknumber=2
Genre=Unknown genre



Register


Go to the top of the page
  Insert nick Quick quote
+Quote Post
 
Start new topic
Replies (1 - 5)
post Jun 23 2016, 21:12:04
Post #2

.....
**************
Group: Металариец
Posts: 2,821
Releases: 117
On Forums: 14 years 11 months
Thanks: 4144 time(s)
Unknown


Альбом мне вполне понравился. Творчество группы нравится весьма выборочно,ранние альбомы более интересны чем поздние. А учитывая какой перерыв был между этим и предыдущим полноформатом можно считать, что возвращение удалось. Нужное настроение и атмосфера присутствуют.

Register


Go to the top of the page
  Insert nick Quick quote
+Quote Post
post Jun 24 2016, 14:29:11
Post #3

Шесть Литров
******
Group: Металариец
Posts: 673
Releases: 4
From: Ukraine
On Forums: 15 years 5 months
Thanks: 400 time(s)
Ukraine


Это поездатая новость!! люблю их гнетущую, механическую злобу, ядовитую. Читающие - услышьте!


Thanks:
(1) Typhoid,
Go to the top of the page
  Insert nick Quick quote
+Quote Post
post Jun 26 2016, 20:07:15
Post #4

Правь статус, ####!111
**************
Group: Металариец
Posts: 56,171
Releases: 1218
On Forums: 15 years 3 weeks
Thanks: 55150 time(s)
Russian Federation


Нравится у них всё, окромя парочки альбомов. Здесь они не потеряли себя и идут верным курсом - мощный и ощеренный блэк метал. Симфо? Только если для подчёркивания зловещести намерений и преданности всему тёмному и потустороннему. Следует заметить, что их бм подлинно самобытен - подобного кроме них не творит никто - они как бы смешивают романтизм и тёмную готику с цепляющим и мрачным чернометом, где всевозможные симфо-дела лишь орнамент, не довлеющий над основой и базисом. Отдельно отмечу мощный и раскатистый вокал с обилием всевозможных модуляций. По мелодиям всё очень сильно, ребзя не сдали ни на шаг, как будто и не было тех восьми лет, что пробежали с момента выхода предыдущего полноформата.

Смело вгрызайтесь. (IMG:style_emoticons/default/true_black.gif)
Go to the top of the page
  Insert nick Quick quote
+Quote Post
post Jun 27 2016, 09:18:56
Post #5

Ъ
**************
Group: Металариец
Posts: 11,214
Releases: 9
On Forums: 15 years 5 months
Thanks: 2278 time(s)
Sweden


Прогнал 3 трека, чет не очень.
Go to the top of the page
  Insert nick Quick quote
+Quote Post
post Jul 10 2017, 05:12:03
Post #6

Правь статус, ####!111
**************
Group: Металариец
Posts: 4,851
Releases: 29
From: Holland
On Forums: 17 years 11 months
Thanks: 1961 time(s)
Netherlands


Так я их и не понял, увы.
Go to the top of the page
  Insert nick Quick quote
+Quote Post

Reply to this topicStart new topic
1 User(s) are reading this topic (1 Guests and 0 Anonymous Users)
0 Members:

 



- Lo-Fi Version Support form
Copyrights and abuse reports form
Time is now: 24th June 2024 - 08:07:46