Welcome Guest ( Log In | Register )

> Melankoli - Fallen [ep] (2016), Depressive Black Metal (D)
post Jun 30 2016, 14:06:51
Post #1

Мегаманьяк
***********
Group: Металариец
Posts: 1,562
Releases: 11
From: Комсомольск-на-Амуре
On Forums: 13 years 2 months
Thanks: 493 time(s)
Russian Federation


(IMG:http://metalarea.org/images/audiocovers/2016_Jun/acov_tid270021_thumb.jpg)

*Artist: Melankoli
*Album: Fallen [ep]
*Year: 2016
*Genre: Depressive Black Metal
*Country: Russian Federation (IMG:http://metalarea.org/forum/style_images/flags/Russian%20Federation.png)
*Format: mp3@CBR320kbps
*Size: 28MB

Tracklist:
1. Fallen I 07:12
2. Fallen II 04:56
******************************
Total playing time: 12:08

Technical info
(IMG:http://metalarea.org/images/spectrogram/2016_Jun/a6ed2648e3e936c4153cb335aaa0ad59.png)
Input File: Melankoli - Fallen - 01 Fallen I.flac
Channels : 2
Sample Rate : 44100
Precision : 16-bit
Duration : 00:07:12.00 = 19051201 samples = 32400 CDDA sectors
File Size : 50.6M
Bit Rate : 937k
Sample Encoding: 16-bit FLAC
Comments :
TITLE=Fallen I
ARTIST=Melankoli
DATE=2016
COMMENT=Visit http://melankoli.bandcamp.com
ALBUM=Fallen
TRACKNUMBER=1
ALBUMARTIST=Melankoli
UNSYNCEDLYRICS=Затянут тучи небо, ты падаешь на дно
Закрой глаза в полёте, ведь всё равно темно.
Омоют словно волны тебя покой и сон,
А ветер нежной песней заглушит тихий стон.



Register


Go to the top of the page
  Insert nick Quick quote
+Quote Post
 
Start new topic
Replies (1 - 6)
post Jun 30 2016, 15:22:03
Post #2

Время Мары
**************
Group: Металариец
Posts: 3,367
Releases: 533
From: Харьков
On Forums: 13 years 5 months
Thanks: 11045 time(s)
Ukraine


Погаваривают что ето последнее ep Melankoli
Go to the top of the page
  Insert nick Quick quote
+Quote Post
post Jun 30 2016, 15:47:12
Post #3

Мегаманьяк
***********
Group: Металариец
Posts: 1,562
Releases: 11
From: Комсомольск-на-Амуре
On Forums: 13 years 2 months
Thanks: 493 time(s)
Russian Federation


FLAC:
Register

Лирика
Затянут тучи небо, ты падаешь на дно
Закрой глаза в полёте, ведь всё равно темно.
Омоют словно волны тебя покой и сон,
А ветер нежной песней заглушит тихий стон.

Ты не один падал вниз, сломав крылья
Ты тот, кто не смог этот путь пролететь
С болью борясь, ты упал от бессилья,
Будто попал в чью-то крепкую сеть.

Может ли время быть к нам благосклонней,
Может ли жизнь хоть на миг замереть?
Будет ли в тесном нам мире просторней,
Если над жизнью главенствует смерть?

Зачем тебе знать на всё это ответы?
Терзая себя ты не мог просто жить
Пытаясь раскрыть мироздания секреты,
Ты начал по лезвию бритвы ходить.

Твой путь отмечен следом крови -
Красный шёлк на снегу.
Дивный мир без этой дикой боли
На другом берегу.
Go to the top of the page
  Insert nick Quick quote
+Quote Post
post Jul 1 2016, 05:34:40
Post #4

Правь статус, ####!111
**************
Group: Металариец
Posts: 2,462
Releases: 12
From: Canada
On Forums: 15 years 5 months
Thanks: 1724 time(s)
Canada




Thanks:
(1) libertine,
Go to the top of the page
  Insert nick Quick quote
+Quote Post
post Jul 1 2016, 15:10:22
Post #5

Мегаманьяк
***********
Group: Металариец
Posts: 1,562
Releases: 11
From: Комсомольск-на-Амуре
On Forums: 13 years 2 months
Thanks: 493 time(s)
Russian Federation


Спектр, мне полноформатник очень даже нравился, в своё время «Ветер» и «Кому» заслушал до дыр. И уж насколько я объевшийся депрессивом, мне он не показался вымученным.
Go to the top of the page
  Insert nick Quick quote
+Quote Post
post Jul 25 2016, 10:03:49
Post #6

Два Литра
**
Group: Завсегдатай
Posts: 186
Releases: 8
On Forums: 6 years 4 months
Thanks: 119 time(s)
Russian Federation


Очередной шедевр. Трек Fallen I просто рвёт на части. И лирикой, и музыкальной композицией. Наконец-то Unknown более-менее подтянул вокал, в "Ветре" были с ним определенные проблемы.
Кстати говоря, кому интересно, у автора есть еще один проект - The Lost Sun космический атмоблэк/эмбиент.
Go to the top of the page
  Insert nick Quick quote
+Quote Post
post Jul 25 2016, 11:07:52
Post #7

Время Мары
**************
Group: Металариец
Posts: 3,367
Releases: 533
From: Харьков
On Forums: 13 years 5 months
Thanks: 11045 time(s)
Ukraine


ЦИТАТА(MetallWarriorRus @ Jul 25 2016, 11:03:49) *
Очередной шедевр. Трек Fallen I просто рвёт на части. И лирикой, и музыкальной композицией. Наконец-то Unknown более-менее подтянул вокал, в "Ветре" были с ним определенные проблемы.
Кстати говоря, кому интересно, у автора есть еще один проект - The Lost Sun космический атмоблэк/эмбиент.

можешь скачать,он есть в наличии (IMG:style_emoticons/default/bye.gif)
Go to the top of the page
  Insert nick Quick quote
+Quote Post

Reply to this topicStart new topic
2 User(s) are reading this topic (2 Guests and 0 Anonymous Users)
0 Members:

 



- Lo-Fi Version Support form
Copyrights and abuse reports form
Time is now: 2nd December 2022 - 23:19:23