Welcome Guest ( Log In | Register )

Объявления

* gmail.com упорно продолжает считать почту с нас "unsolicited" и отбивает в том числе и письма активации, поэтому просьба использовать альтернативные почтовые ящики.
------------
* gmail.com continues reject all mail from us as "unsolicited" (activation mails too) therefore please use alternate mail servers.
> Anabios - Self-Demolition [ep] (2016), Death/Thrash Metal
post Jul 3 2016, 15:11:07
Post #1

Правь статус, ####!111
**************
Group: Металариец
Posts: 3,497
Releases: 1809
From: Земля
On Forums: 10 years 3 months
Thanks: 10110 time(s)
Russian Federation


(IMG:https://metalarea.org/images/audiocovers/2016_Jul/acov_tid270216_thumb.jpg)

*Artist: Anabios
*Album: Self-Demolition [ep]
*Year: 2016
*Genre: Death/Thrash Metal
*Country: Ukraine (IMG:https://metalarea.org/forum/style_images/flags/Ukraine.png)
*Format: mp3@CBR320kbps
*Size: 27MB

Tracklist:
1. Quick Putrefaction 2:38
2. Mental Torment 3:11
3. System 3:02
4. Certain Death (Sadus Cover) 3:48
******************************
Total playing time: 12:39

vk.com

Technical info
(IMG:https://metalarea.org/images/spectrogram/2016_Jul/7c0080c6870549fb2aea91a409fa3a58.png)
Input File: Anabios - 1 Quick Putrefaction.mp3
Channels : 2
Sample Rate : 44100
Precision : 16-bit
Duration : 00:02:38.72 = 6999508 samples = 11903.9 CDDA sectors
File Size : 6.35M
Bit Rate : 320k
Sample Encoding: MPEG audio (layer I, II or III)
Comment : 'Year=2016'



Register


Go to the top of the page
  Insert nick Quick quote
+Quote Post
 
Start new topic
Replies (1 - 2)
post May 17 2023, 14:38:59
Post #2

Правь статус, ####!111
**************
Group: Металариец
Posts: 3,191
Releases: 0
From: д. Гадюкино
On Forums: 10 years 4 weeks
Thanks: 3263 time(s)
Russian Federation



Free Download / в бесплатном скачивании

Mirror
MP3


Thanks:
Go to the top of the page
  Insert nick Quick quote
+Quote Post
post May 17 2023, 15:13:29
Post #3

Девять Литров
*********
Group: Металариец
Posts: 902
Releases: 49
From: Donetsk
On Forums: 15 years 7 months
Thanks: 2139 time(s)
Ukraine


[quote name='Veggr' date='May 17 2023, 16:38:59' post='2761052']

Free Download / в бесплатном скачивании

От, я тюха, спасибо огромное тебе за зеркало
Go to the top of the page
  Insert nick Quick quote
+Quote Post

Reply to this topicStart new topic
1 User(s) are reading this topic (1 Guests and 0 Anonymous Users)
0 Members:

 



- Lo-Fi Version Support form
Copyrights and abuse reports form
Time is now: 20th June 2024 - 17:54:50