Welcome Guest ( Log In | Register )

> Perpetual Night - Mastery Of God [ep] (2016), Melodic Death Metal
post Jul 21 2016, 11:45:11
Post #1

Мегаманьяк
***********
Group: Металариец
Posts: 1,562
Releases: 11
From: Комсомольск-на-Амуре
On Forums: 12 years 1 day
Thanks: 492 time(s)
Russian Federation


(IMG:http://metalarea.org/images/audiocovers/2016_Jul/acov_tid271036_thumb.jpg)

*Artist: Perpetual Night
*Album: Mastery Of God [ep]
*Year: 2016
*Genre: Melodic Death Metal
*Country: Spain (IMG:http://metalarea.org/forum/style_images/flags/Spain.png)
*Format: mp3@CBR320kbps
*Size: 51MB

Tracklist:
1. The Reborn 1:14
2. The Catcher In The Rye 5:30
3. The White Wolf 4:23
4. 28 Days 4:52
5. Evil Of The Tyrants 6:21
******************************
Total playing time: 22:20

Technical info
(IMG:http://metalarea.org/images/spectrogram/2016_Jul/13769a6550f957b48df552c78525d151.png)
Input File: 01 - The Reborn.mp3
Channels : 2
Sample Rate : 44100
Precision : 16-bit
Duration : 00:01:14.07 = 3266355 samples = 5555.03 CDDA sectors
File Size : 2.96M
Bit Rate : 320k
Sample Encoding: MPEG audio (layer I, II or III)
Comments :
Title=The Reborn
Artist=Perpetual
Album=Mastery Of God
Tracknumber=1
Year=2016



Register


Go to the top of the page
  Insert nick Quick quote
+Quote Post
 
Start new topic
Replies (1 - 1)
post Jul 21 2016, 13:10:41
Post #2

Morbid Angel
**************
Group: Металариец
Posts: 4,175
Releases: 0
From: Литва г.Клайпеда
On Forums: 14 years 6 months
Thanks: 1814 time(s)
Lithuania



2016 год.


Go to the top of the page
  Insert nick Quick quote
+Quote Post

Reply to this topicStart new topic
2 User(s) are reading this topic (2 Guests and 0 Anonymous Users)
0 Members:

 



- Lo-Fi Version Support form
Copyrights and abuse reports form
Time is now: 20th September 2021 - 20:55:25