Welcome Guest ( Log In | Register )

> Stabat Mater - Give Them Pain [compilation] (2016), Funeral Doom Metal (D)
post Jul 22 2016, 21:43:42
Post #1

Правь статус, ####!111
**************
Group: Металариец
Posts: 4,376
Releases: 1234
From: Brazil
On Forums: 8 years 4 months
Thanks: 46284 time(s)
Brazil


(IMG:http://metalarea.org/images/audiocovers/2016_Jul/acov_tid271134_thumb.jpg)

*Artist: Stabat Mater
*Album: Give Them Pain [compilation]
*Year: 2016
*Genre: Funeral Doom Metal
*Country: Finland (IMG:http://metalarea.org/forum/style_images/flags/Finland.png)
*Format: mp3@CBR320kbps
*Size: 180MB

Tracklist:
1. Above Him 17:30
2. Give Them Pain 07:22
3. Chambers of Torture 12:05
4. Outro 01:32
5. Gates 07:42
6. Untitled 06:45
7. Chambers of Torture 1 & 2 20:18
******************************
Total playing time: 1:13:14

(IMG:http://metalarea.org/images/youtube.png)

Extended info
Northern Heritage [NH-093]

Track 1 is taken from "Crushing the Holy Trinity" 3xCD/3xLP compilation
Track 2 is taken from split with Worship, extended by additional intro
Tracks 3 and 4 are unreleased songs from 2001
Track 5 is taken from split with Mournful Congregation
Track 6 is taken from "Church of the Flagellation" compilation tape
Track 7 is taken from split with A.M.

Lineup
Mikko Aspa - Everything (2001-present)
See also: Clandestine Blaze, Creamface, D.O.M., Deathspell Omega, Fleshpress, ex-A.M., Alchemy of the 20th Century, Clinic of Torture, Grunt, Nihilist Commando, Pain Nail, Vapaudenristi, ex-Ride for Revenge (live), ex-Irritate (live), ex-Morbid Savouring, ex-Dorchester Library, ex-Nicole 12, ex-Noise Waste


Technical info
(IMG:http://metalarea.org/images/spectrogram/2016_Jul/863f3355cd05b4b236e32bfd70194262.png)
Input File: (01)_[Stabat_Mater]_Above_Him.mp3
Channels : 2
Sample Rate : 44100
Precision : 16-bit
Duration : 00:17:30.17 = 46312409 samples = 78762.6 CDDA sectors
File Size : 42.0M
Bit Rate : 320k
Sample Encoding: MPEG audio (layer I, II or III)
Comments :
Title=Above Him
Artist=Stabat Mater
Album=Give Them Pain
Tracknumber=01
Genre=



Register

Register


Go to the top of the page
  Insert nick Quick quote
+Quote Post
 
Start new topic
Replies (1 - 3)
post Aug 5 2016, 14:40:57
Post #2

Правь статус, ####!111
**************
Group: Металариец
Posts: 46,493
Releases: 718
On Forums: 11 years 4 days
Thanks: 39035 time(s)
Russian Federation


Аспа и тут умудрился сделать все отлично — протяжный и тягучий дум с классическими вставками и хорами. Прекрасно.
Go to the top of the page
  Insert nick Quick quote
+Quote Post
post Feb 12 2018, 23:44:42
Post #3

=(
Group Icon
Group: Moderation team
Posts: 6,405
Releases: 2059
On Forums: 13 years 9 months
Thanks: 64248 time(s)
Saudi Arabia


Added links by LazarShadow


Go to the top of the page
  Insert nick Quick quote
+Quote Post
post Dec 31 2019, 11:05:37
Post #4

Четыре Литра
****
Group: Металариец
Posts: 399
Releases: 79
On Forums: 6 years 7 months
Thanks: 1532 time(s)
Serbia


Register


Thanks:
Go to the top of the page
  Insert nick Quick quote
+Quote Post

Reply to this topicStart new topic
2 User(s) are reading this topic (2 Guests and 0 Anonymous Users)
0 Members:

 



- Lo-Fi Version Support form
Copyrights and abuse reports form
Time is now: 6th June 2020 - 04:41:14