Welcome Guest ( Log In | Register )

> Myth Of A Life - She Who Invites (2016), Melodic Death Metal
post Jul 23 2016, 02:48:32
Post #1

Serial Uploader
Group Icon
Group: V.I.P
Posts: 37,532
Releases: 35706
From: Lithuania
On Forums: 12 years 10 months
Thanks: 431406 time(s)
Lithuania


(IMG:http://metalarea.org/images/audiocovers/2016_Jul/acov_tid271141_thumb.jpg)

*Artist: Myth Of A Life
*Album: She Who Invites
*Year: 2016
*Genre: Melodic Death Metal
*Country: United Kingdom (IMG:http://metalarea.org/forum/style_images/flags/United%20Kingdom.png)
*Format: mp3@CBR320kbps
*Size: 110MB

Tracklist:
01. Codex of Betrayal
02. Scourged and Crucified
03. Lobotomized
04. Erinyes
05. Taking Back What Is Mine
06. Pull the Trigger
07. Broken
08. Through the River
09. She Who Invites
10. Waiting to Die
11. Murder
12. Burning Vision
******************************
Total playing time: 47:28



Technical info
(IMG:http://metalarea.org/images/spectrogram/2016_Jul/34d5915147c69839e540fd3dcaaeef87.png)
Input File: 02. Scourged And Crucified.mp3
Channels : 2
Sample Rate : 44100
Precision : 16-bit
Duration : 00:04:04.72 = 10791932 samples = 18353.6 CDDA sectors
File Size : 9.90M
Bit Rate : 324k
Sample Encoding: MPEG audio (layer I, II or III)
Comments :
Title=Scourged And Crucified
Artist=Myth Of A Life
Album=She Who Invites
Tracknumber=02/12
Year=2016



Register


Go to the top of the page
  Insert nick Quick quote
+Quote Post
 
Start new topic
Replies (1 - 9)
post Jul 23 2016, 13:34:23
Post #2

Два Литра
**
Group: Завсегдатай
Posts: 140
Releases: 0
On Forums: 14 years 2 weeks
Thanks: 128 time(s)
Russian Federation




Thanks:
(1) artscald,
Go to the top of the page
  Insert nick Quick quote
+Quote Post
post Jul 23 2016, 13:40:01
Post #3

Волк без яблока
**************
Group: Металариец
Posts: 13,601
Releases: 108
From: Санкт-Петербург
On Forums: 14 years 6 months
Thanks: 15854 time(s)
Russian Federation


Неплохо, бодрая и сочная шведятина, хотя и без изысков, но гроул уж очень суров.
Go to the top of the page
  Insert nick Quick quote
+Quote Post
post Jul 24 2016, 09:28:39
Post #4

hearer & reader
**************
Group: Металариец
Posts: 9,619
Releases: 170
From: Moscow
On Forums: 13 years 7 months
Thanks: 10629 time(s)
Russian Federation



Не без кора, я мимо.
Go to the top of the page
  Insert nick Quick quote
+Quote Post
post Jul 24 2016, 21:01:25
Post #5

MDM-Thrash Metal
**************
Group: Металариец
Posts: 10,278
Releases: 1217
From: Одесса
On Forums: 13 years 8 months
Thanks: 29828 time(s)
Ukraine


ЦИТАТА(AHBAnep @ Jul 24 2016, 11:28:39) *

Не без кора, я мимо.


+100! Музыка хорошая, слова не очень... Точнее вокал. Ну как до воли таки неплохую муз составляющую просто напросто убить таким припоцаnnым вокалом (IMG:style_emoticons/default/fear.gif)
Go to the top of the page
  Insert nick Quick quote
+Quote Post
post Jul 27 2016, 08:20:15
Post #6

Ъ
**************
Group: Металариец
Posts: 10,566
Releases: 9
On Forums: 12 years 3 months
Thanks: 2161 time(s)
Sweden


Ничего интересного и дело даже не в вокале, слушать эти рифы криво пересобранные в 100500 раз непонятно от кого, то еще удовольствие.
Go to the top of the page
  Insert nick Quick quote
+Quote Post
post Jul 27 2016, 21:28:00
Post #7

Сектант технодро4чер
**************
Group: Металариец
Posts: 5,564
Releases: 143
From: Тимчасово окупована територія
On Forums: 12 years 7 months
Thanks: 5931 time(s)
Ukraine


ЦИТАТА(Andrew @ Jul 25 2016, 00:01:25) *
+100! Музыка хорошая, слова не очень... Точнее вокал. Ну как до воли таки неплохую муз составляющую просто напросто убить таким припоцаnnым вокалом (IMG:style_emoticons/default/fear.gif)


Не самый плохой плохой. Сочетанием гроула с скрима Neaera напомнили... (IMG:style_emoticons/default/bye.gif)
Go to the top of the page
  Insert nick Quick quote
+Quote Post
post Sep 28 2016, 20:47:23
Post #8

Black is beautiful
***********
Group: Металариец
Posts: 1,850
Releases: 4
On Forums: 9 years 1 month
Thanks: 377 time(s)
Unknown


Simple mesh: The high and the deep vocal. Boring! (IMG:style_emoticons/default/14.gif)
A single cliche.
Go to the top of the page
  Insert nick Quick quote
+Quote Post
post Feb 17 2021, 08:59:19
Post #9

Девять Литров
*********
Group: Металариец
Posts: 978
Releases: 0
From: Цимлянск
On Forums: 6 years 10 months
Thanks: 263 time(s)
Russian Federation


Обновите ссылку?
Go to the top of the page
  Insert nick Quick quote
+Quote Post
post Feb 17 2021, 11:56:29
Post #10

Group Icon
Group: S-moderation team
Posts: 20,347
Releases: 1441
From: Zagreb
On Forums: 10 years 1 month
Thanks: 93295 time(s)
Croatia


Register


Thanks:
(1) Olethros,
Go to the top of the page
  Insert nick Quick quote
+Quote Post

Reply to this topicStart new topic
1 User(s) are reading this topic (1 Guests and 0 Anonymous Users)
0 Members:

 



- Lo-Fi Version Support form
Copyrights and abuse reports form
Time is now: 19th April 2021 - 10:36:21